VERSION	0.00.00	1.03.00
FES_MODE	0
BPM_DEF	154.000	154.000	154.000	154.000
MET_DEF	4	4
RESOLUTION	384
CLK_DEF	384
COMPATIBLE_CODE	MA2

BPM	0	0	154.000
MET	0	0	4	4

TAP	5	0	0
TAP	5	192	0
TAP	6	0	0
TAP	7	0	1
TAP	7	192	1
TAP	8	0	1
TAP	9	0	2
TAP	9	192	2
TAP	10	0	2
TAP	11	0	3
TAP	11	192	3
TAP	12	0	3
TAP	12	0	4
TAP	13	0	3
TAP	13	0	4
HLD	14	0	4	384
HLD	16	0	5	384
HLD	18	0	6	384
HLD	20	0	7	384
TAP	22	0	0
TAP	22	192	0
TAP	23	0	7
TAP	23	192	7
TAP	24	0	6
TAP	24	192	6
TAP	25	0	5
TAP	25	192	4
TAP	25	192	5
TAP	26	0	4
TAP	26	192	4
TAP	27	0	3
TAP	27	192	3
TAP	28	0	2
TAP	28	192	2
TAP	29	0	1
TAP	29	192	0
TAP	29	192	1
TAP	30	0	7
TAP	30	96	7
TAP	30	192	7
TAP	31	0	0
TAP	31	96	0
TAP	31	192	0
TAP	32	0	1
TAP	32	96	1
TAP	32	192	1
TAP	33	0	2
TAP	33	0	3
TAP	33	96	2
TAP	33	96	3
TAP	33	192	2
TAP	33	192	3
TAP	34	0	3
TAP	34	96	3
TAP	34	192	3
TAP	35	0	4
TAP	35	96	4
TAP	35	192	4
TAP	36	0	5
TAP	36	96	5
TAP	36	192	5
HLD	37	0	6	192
HLD	37	0	7	192
TAP	38	0	0
TAP	38	96	0
TAP	38	192	0
TAP	39	0	7
TAP	39	96	7
TAP	39	192	7
TAP	40	0	6
TAP	40	96	6
TAP	40	192	6
TAP	41	0	4
TAP	41	0	5
TAP	41	96	4
TAP	41	96	5
TAP	41	192	4
TAP	41	192	5
TAP	42	0	4
TAP	42	96	4
TAP	42	192	4
TAP	43	0	3
TAP	43	96	3
TAP	43	192	3
TAP	44	0	2
TAP	44	96	2
TAP	44	192	2
HLD	45	0	0	192
HLD	45	0	1	192
STR	46	0	7
SI_	46	0	7	96	288	4
STR	48	0	0
SI_	48	0	0	96	288	3
STR	50	0	7
SI_	50	0	7	96	288	2
STR	52	0	0
SI_	52	0	0	96	288	5
TAP	54	0	7
TAP	54	192	7
TAP	55	0	0
TAP	55	96	7
TAP	55	192	0
TAP	56	0	1
TAP	56	192	1
TAP	57	0	2
TAP	57	96	3
TAP	57	192	2
TAP	58	0	3
TAP	58	192	3
TAP	59	0	4
TAP	59	96	3
TAP	59	192	4
TAP	60	0	5
TAP	60	192	5
TAP	61	0	6
TAP	61	96	7
TAP	61	192	6
TAP	62	0	0
TAP	62	0	1
TAP	63	0	6
TAP	63	0	7
TAP	64	0	4
TAP	64	0	5
TAP	65	0	2
TAP	65	0	3
TAP	65	192	2
TAP	65	192	3
TAP	66	0	2
TAP	66	0	3
TAP	67	0	4
TAP	67	0	5
TAP	68	0	6
TAP	68	0	7
TAP	68	192	6
TAP	68	192	7
TAP	69	0	6
TAP	69	0	7
BRK	70	0	0
TAP	70	96	0
TAP	70	192	0
TAP	70	192	7
TAP	71	0	6
TAP	71	96	6
TAP	71	192	6
TAP	71	192	7
TAP	72	0	5
TAP	72	96	5
TAP	72	192	4
TAP	72	192	5
TAP	73	0	3
TAP	73	0	4
TAP	73	96	3
TAP	73	96	4
TAP	73	192	3
TAP	73	192	4
TAP	74	0	2
TAP	74	96	2
TAP	74	192	2
TAP	74	192	3
TAP	75	0	1
TAP	75	96	1
TAP	75	192	0
TAP	75	192	1
TAP	76	0	7
TAP	76	96	7
TAP	76	192	0
TAP	76	192	7
TAP	77	0	6
TAP	77	0	7
TAP	77	96	6
TAP	77	96	7
TAP	77	192	6
TAP	77	192	7
BRK	78	0	7
TAP	78	96	7
TAP	78	192	0
TAP	78	192	7
TAP	79	0	1
TAP	79	96	1
TAP	79	192	0
TAP	79	192	1
TAP	80	0	2
TAP	80	96	2
TAP	80	192	2
TAP	80	192	3
TAP	81	0	3
TAP	81	0	4
TAP	81	96	3
TAP	81	96	4
TAP	81	192	3
TAP	81	192	4
TAP	82	0	5
TAP	82	96	5
TAP	82	192	4
TAP	82	192	5
TAP	83	0	6
TAP	83	96	6
TAP	83	192	6
TAP	83	192	7
TAP	84	0	0
TAP	84	96	0
TAP	84	192	0
TAP	84	192	7
TAP	85	0	0
TAP	85	0	1
TAP	85	96	0
TAP	85	96	1
TAP	85	192	0
TAP	85	192	1
TAP	86	0	7
TAP	86	96	7
TAP	86	192	7
TAP	87	0	6
TAP	87	96	6
TAP	87	192	6
TAP	88	0	5
TAP	88	96	5
TAP	88	192	5
HLD	89	0	3	528
HLD	89	0	4	528

T_REC_TAP	200
T_REC_BRK	2
T_REC_XTP	0
T_REC_HLD	10
T_REC_XHO	0
T_REC_STR	4
T_REC_BST	0
T_REC_XST	0
T_REC_TTP	0
T_REC_THO	0
T_REC_SLD	4
T_REC_ALL	220
T_NUM_TAP	204
T_NUM_BRK	2
T_NUM_HLD	10
T_NUM_SLD	4
T_NUM_ALL	220
T_JUDGE_TAP	206
T_JUDGE_HLD	70
T_JUDGE_SLD	4
T_JUDGE_ALL	280
TTM_EACHPAIRS	47
TTM_SCR_TAP	102000
TTM_SCR_BRK	5200
TTM_SCR_HLD	10000
TTM_SCR_SLD	6000
TTM_SCR_ALL	123200
TTM_SCR_S	119350
TTM_SCR_SS	123000
TTM_RAT_ACV	10016

