VERSION	0.00.00	1.03.00
FES_MODE	0
BPM_DEF	257.000	257.000	257.000	257.000
MET_DEF	4	4
RESOLUTION	384
CLK_DEF	384
COMPATIBLE_CODE	MA2

BPM	0	0	257.000
MET	0	0	4	4

HLD	2	0	2	384
HLD	3	0	3	384
HLD	4	0	4	384
HLD	5	0	5	384
TAP	6	0	1
TAP	6	96	1
TAP	6	96	4
TAP	6	192	1
TAP	6	288	1
TAP	6	288	4
TAP	7	0	1
TAP	7	96	1
TAP	7	96	4
TAP	7	192	1
TAP	7	288	1
TAP	7	288	4
TAP	8	0	0
TAP	8	48	7
TAP	8	96	2
TAP	8	144	5
TAP	8	192	1
TAP	8	240	6
TAP	8	288	3
HLD	8	336	4	96
TAP	9	48	3
TAP	9	96	5
TAP	9	144	2
TAP	9	192	6
TAP	9	240	1
STR	9	288	7
SI_	9	288	7	96	48	4
STR	10	0	7
SI_	10	0	7	96	48	2
STR	10	96	7
SCL	10	96	7	96	48	4
STR	10	192	7
SCR	10	192	7	96	48	2
STR	10	288	7
SI_	10	288	7	96	48	4
STR	11	0	7
SI_	11	0	7	96	48	2
STR	11	96	7
SCL	11	96	7	96	48	4
STR	11	192	7
SCR	11	192	7	96	48	2
STR	11	288	7
SI_	11	288	7	96	48	4
STR	12	0	7
SI_	12	0	7	96	48	2
STR	12	96	7
SCL	12	96	7	96	48	4
STR	12	192	7
SCR	12	192	7	96	48	2
TAP	12	288	7
TAP	13	0	5
TAP	13	48	4
TAP	13	96	5
TAP	13	144	3
TAP	13	144	6
TAP	13	240	1
STR	13	288	0
SI_	13	288	0	96	48	5
TAP	13	336	1
STR	14	0	0
SI_	14	0	0	96	48	3
STR	14	96	0
SCL	14	96	0	96	48	5
STR	14	192	0
SCR	14	192	0	96	48	3
STR	14	288	0
SI_	14	288	0	96	48	5
STR	15	0	0
SI_	15	0	0	96	48	3
STR	15	96	0
SCL	15	96	0	96	48	5
STR	15	192	0
SCR	15	192	0	96	48	3
TAP	15	288	0
TAP	16	0	4
TAP	16	0	6
TAP	16	48	4
TAP	16	48	6
TAP	16	144	1
TAP	16	144	3
TAP	16	192	1
TAP	16	192	3
TAP	16	288	3
TAP	16	288	4
TAP	16	336	3
HLD	16	336	4	336
TAP	17	96	5
TAP	17	192	5
BRK	17	288	1
TAP	18	0	4
TAP	18	96	4
TAP	18	192	3
TAP	18	288	3
TAP	19	0	2
TAP	19	96	2
TAP	19	144	3
TAP	19	192	2
TAP	19	288	3
TAP	19	336	4
TAP	20	0	2
TAP	20	96	2
TAP	20	192	5
TAP	20	288	5
TAP	21	0	2
TAP	21	48	4
TAP	21	96	3
TAP	21	144	4
TAP	21	192	2
TAP	21	288	5
TAP	21	336	4
TAP	22	0	5
TAP	22	96	2
TAP	22	144	3
TAP	22	192	2
TAP	22	288	3
TAP	22	288	4
TAP	23	0	3
TAP	23	0	4
TAP	23	96	5
TAP	23	144	4
TAP	23	192	5
TAP	23	288	4
TAP	24	0	3
TAP	24	96	2
TAP	24	192	3
TAP	24	240	4
TAP	24	288	3
TAP	24	336	4
HLD	25	0	3	288
TAP	25	96	7
HLD	25	144	7	144
TAP	26	0	1
TAP	26	0	4
TAP	26	96	3
TAP	26	96	7
TAP	26	192	0
TAP	26	192	4
TAP	26	288	3
TAP	26	288	6
TAP	27	0	1
TAP	27	0	5
STR	27	96	6
SI_	27	96	6	96	48	3
TAP	27	144	7
TAP	27	192	6
TAP	27	288	2
TAP	28	0	3
TAP	28	0	7
TAP	28	96	1
TAP	28	96	4
TAP	28	192	2
TAP	28	192	6
TAP	28	288	0
TAP	28	288	4
TAP	29	0	1
TAP	29	48	0
STR	29	96	1
SI_	29	96	1	96	48	5
TAP	29	144	0
TAP	29	192	1
STR	29	288	6
SI_	29	288	6	96	48	3
TAP	29	336	7
TAP	30	0	6
STR	30	96	1
SI_	30	96	1	96	48	4
TAP	30	144	0
TAP	30	192	1
STR	30	288	6
SCL	30	288	6	96	48	3
TAP	30	336	7
TAP	31	0	6
STR	31	96	1
SCR	31	96	1	96	48	4
TAP	31	144	0
TAP	31	192	1
TAP	31	288	6
TAP	32	0	4
TAP	32	0	5
TAP	32	96	2
TAP	32	96	3
TAP	32	192	4
TAP	32	240	3
TAP	32	288	4
TAP	32	336	3
HLD	33	0	4	288
TAP	33	96	0
HLD	33	144	0	144
TAP	34	0	0
TAP	34	96	0
TAP	34	192	0
STR	34	288	2
SI_	34	288	2	96	48	7
STR	34	288	6
SI_	34	288	6	96	48	3
BRK	35	0	2
BRK	35	0	6
TAP	35	96	1
TAP	35	96	5
TAP	35	192	4
TAP	35	240	0
TAP	35	288	5
TAP	35	336	1
STR	36	0	2
SCR	36	0	2	96	48	5
TAP	36	0	6
TAP	36	96	7
TAP	36	144	7
TAP	36	240	0
TAP	36	240	4
TAP	36	288	0
TAP	36	288	4
TAP	37	0	6
TAP	37	48	7
TAP	37	96	3
TAP	37	144	2
TAP	37	192	0
TAP	37	240	1
TAP	37	288	5
TAP	37	336	4
TAP	38	0	7
TAP	38	24	6
TAP	38	48	5
TAP	38	72	4
TAP	38	96	3
TAP	38	96	7
TAP	38	192	7
TAP	38	216	0
TAP	38	240	1
TAP	38	264	2
TAP	38	288	3
TAP	38	288	7
TAP	39	0	1
TAP	39	0	5
BRK	39	96	0
BRK	39	96	7
TAP	39	192	1
TAP	39	240	4
TAP	39	288	3
TAP	39	336	6
TAP	40	0	1
STR	40	0	5
SCL	40	0	5	96	48	2
TAP	40	96	0
TAP	40	144	0
TAP	40	240	3
TAP	40	240	7
TAP	40	288	3
TAP	40	288	7
TAP	41	0	6
TAP	41	48	6
TAP	41	96	0
TAP	41	144	0
TAP	41	192	2
TAP	41	240	2
TAP	41	288	4
HLD	41	336	4	96
TAP	42	48	5
TAP	42	96	4
TAP	42	144	3
TAP	42	192	2
TAP	42	240	1
STR	42	288	0
SCR	42	288	0	96	96	3
STR	43	0	3
SUR	43	0	3	96	96	0
STR	43	96	0
SCR	43	96	0	96	96	3
TAP	43	192	3
STR	43	288	7
SCL	43	288	7	96	96	4
STR	44	0	4
SUL	44	0	4	96	96	7
STR	44	96	7
SCL	44	96	7	96	96	4
TAP	44	192	4
STR	44	288	0
SCR	44	288	0	96	96	3
STR	45	0	3
SUR	45	0	3	96	96	0
STR	45	96	0
SCR	45	96	0	96	96	3
TAP	45	192	3
STR	45	288	7
SCL	45	288	7	96	96	4
STR	46	0	4
SUL	46	0	4	96	96	7
STR	46	96	7
SCL	46	96	7	96	96	4
TAP	46	192	4
TAP	46	288	7
TAP	47	0	1
TAP	47	48	0
TAP	47	96	1
TAP	47	144	1
TAP	47	192	6
TAP	47	240	7
TAP	47	288	6
TAP	47	336	6
TAP	48	0	2
TAP	48	48	0
TAP	48	96	2
TAP	48	144	2
TAP	48	192	5
TAP	48	240	7
TAP	48	288	5
TAP	48	336	5
TAP	49	0	1
TAP	49	48	1
TAP	49	96	3
TAP	49	144	3
TAP	49	192	5
TAP	49	240	5
TAP	49	288	7
TAP	49	336	7
TAP	50	0	0
TAP	50	24	1
TAP	50	48	2
TAP	50	72	3
TAP	50	96	4
TAP	50	120	5
TAP	50	144	6
TAP	50	168	7
TAP	50	192	0
TAP	50	216	1
TAP	50	240	2
TAP	50	264	3
TAP	50	288	4
TAP	50	312	5
TAP	50	336	6
TAP	50	360	7
TAP	51	0	0
TAP	51	0	4
STR	51	96	6
SI_	51	96	6	96	48	3
TAP	51	144	7
TAP	51	192	6
TAP	51	288	1
TAP	52	0	2
TAP	52	0	3
STR	52	96	1
SI_	52	96	1	96	48	4
TAP	52	144	0
TAP	52	192	1
TAP	52	288	6
TAP	53	0	4
TAP	53	0	5
STR	53	96	7
SI_	53	96	7	96	48	3
TAP	53	144	0
TAP	53	192	7
TAP	53	288	1
TAP	54	0	2
TAP	54	0	3
STR	54	96	5
SI_	54	96	5	96	48	0
TAP	54	144	4
TAP	54	192	5
TAP	54	240	3
TAP	54	288	2
TAP	54	336	1
STR	55	0	0
SCL	55	0	0	96	96	5
STR	55	96	5
SI_	55	96	5	96	96	1
STR	55	192	1
SCR	55	192	1	96	192	0
HLD	55	288	4	192
STR	56	192	5
SI_	56	192	5	96	96	1
STR	56	288	1
SI_	56	288	1	96	96	5
STR	57	0	5
SCL	57	0	5	96	96	2
STR	57	96	2
SCL	57	96	2	96	96	7
STR	57	192	7
SCL	57	192	7	96	96	4
TAP	57	288	4
TAP	58	0	3
TAP	58	48	2
TAP	58	96	1
TAP	58	144	0
TAP	58	192	7
TAP	58	216	6
TAP	58	240	5
TAP	58	264	4
TAP	58	288	3
TAP	58	312	2
TAP	58	336	1
TAP	58	360	0
TAP	59	0	3
TAP	59	0	7
TAP	59	96	1
TAP	59	144	0
TAP	59	192	2
TAP	59	240	7
TAP	59	288	3
TAP	59	336	6
HLD	60	0	4	96
STR	60	96	5
SI_	60	96	5	96	48	7
TAP	60	144	5
TAP	60	240	2
TAP	60	288	3
TAP	60	336	1
TAP	61	0	0
TAP	61	0	4
TAP	61	96	6
TAP	61	144	7
TAP	61	192	5
TAP	61	240	0
TAP	61	288	4
TAP	61	336	1
HLD	62	0	3	96
STR	62	96	2
SI_	62	96	2	96	48	0
TAP	62	144	2
TAP	62	240	5
TAP	62	288	4
TAP	62	336	6
TAP	63	0	3
STR	63	0	7
SI_	63	0	7	96	48	2
STR	63	96	1
SI_	63	96	1	96	48	5
STR	63	192	4
SI_	63	192	4	96	48	0
STR	63	288	3
SI_	63	288	3	96	48	7
STR	64	0	5
SI_	64	0	5	96	48	2
STR	64	96	0
SI_	64	96	0	96	48	5
STR	64	192	6
SI_	64	192	6	96	48	3
STR	64	288	2
SCL	64	288	2	96	144	3
HLD	65	0	7	192
BRK	66	0	1
BRK	66	0	6
BRK	66	96	3
BRK	66	96	4
BRK	66	192	0
BRK	66	192	7
HLD	67	0	0	96
HLD	67	192	1	96
HLD	68	0	2	96
HLD	68	192	3	96
HLD	69	0	4	96
HLD	69	192	5	96
HLD	70	0	6	96
HLD	70	192	7	96
TAP	71	0	0
TAP	71	96	1
TAP	71	192	2
TAP	71	288	3
TAP	72	0	4
TAP	72	96	5
TAP	72	192	6
TAP	72	288	7
TAP	73	0	0
TAP	73	48	1
TAP	73	96	2
TAP	73	144	3
TAP	73	192	4
TAP	73	240	5
TAP	73	288	6
TAP	73	336	7
TAP	74	0	0
TAP	74	24	1
TAP	74	48	2
TAP	74	72	3
TAP	74	96	4
TAP	74	120	5
TAP	74	144	6
TAP	74	168	7
BRK	74	192	0
TAP	75	0	2
TAP	75	0	6
STR	75	96	2
SI_	75	96	2	96	96	7
STR	75	96	6
SI_	75	96	6	96	96	3
TAP	76	0	1
TAP	76	0	5
STR	76	96	1
SI_	76	96	1	96	96	4
STR	76	96	5
SI_	76	96	5	96	96	0
HLD	77	0	4	96
HLD	77	0	6	96
HLD	77	192	1	96
HLD	77	192	3	96
STR	78	0	1
SLR	78	0	1	96	144	0
STR	78	0	6
SLL	78	0	6	96	144	7
TAP	79	0	0
TAP	79	0	7
TAP	79	24	1
TAP	79	48	2
TAP	79	72	3
TAP	79	96	4
TAP	79	120	5
TAP	79	144	6
TAP	79	168	7
TAP	79	192	0
TAP	79	216	1
TAP	79	240	2
TAP	79	264	3
TAP	79	288	4
TAP	79	312	5
TAP	79	336	6
TAP	79	360	7
TAP	80	0	0
TAP	80	0	4
TAP	80	24	3
TAP	80	48	2
TAP	80	72	1
TAP	80	96	0
TAP	80	120	7
TAP	80	144	6
TAP	80	168	5
TAP	80	192	4
TAP	80	216	3
TAP	80	240	2
TAP	80	264	1
TAP	80	288	0
TAP	80	312	7
TAP	80	336	6
TAP	80	360	5
TAP	81	0	0
TAP	81	0	4
TAP	81	24	1
TAP	81	48	2
TAP	81	72	3
TAP	81	96	0
TAP	81	96	4
TAP	81	120	7
TAP	81	144	6
TAP	81	168	5
TAP	81	192	0
TAP	81	192	4
TAP	81	216	1
TAP	81	240	2
TAP	81	264	3
TAP	81	288	0
TAP	81	288	4
TAP	81	312	7
TAP	81	336	6
TAP	81	360	5
HLD	82	0	0	192
HLD	82	0	4	192
HLD	83	0	0	96
TAP	83	0	1
TAP	83	48	1
TAP	83	96	1
HLD	83	192	0	96
TAP	83	192	7
TAP	83	240	7
TAP	83	288	7
TAP	84	0	0
TAP	84	24	1
TAP	84	48	2
TAP	84	72	3
STR	84	96	0
SI_	84	96	0	96	48	4
TAP	84	120	7
TAP	84	144	6
TAP	84	168	5
BRK	84	192	0
TAP	85	0	6
HLD	85	0	7	96
TAP	85	48	6
TAP	85	96	6
TAP	85	192	0
HLD	85	192	7	96
TAP	85	240	0
TAP	85	288	0
TAP	86	0	7
TAP	86	24	6
TAP	86	48	5
TAP	86	72	4
STR	86	96	7
SI_	86	96	7	96	48	3
TAP	86	120	0
TAP	86	144	1
TAP	86	168	2
BRK	86	192	7
TAP	87	0	1
TAP	87	48	4
TAP	87	96	3
TAP	87	144	4
TAP	87	192	6
TAP	87	240	4
TAP	87	288	3
TAP	87	336	4
TAP	88	0	2
TAP	88	48	4
TAP	88	96	3
TAP	88	144	4
HLD	88	192	2	96
HLD	88	192	5	96
TAP	89	0	7
TAP	89	48	3
TAP	89	96	4
TAP	89	144	3
TAP	89	192	7
TAP	89	240	3
TAP	89	288	4
TAP	89	336	3
STR	90	0	7
SI_	90	0	7	96	96	3
BRK	90	192	0
TAP	91	0	1
TAP	91	32	2
TAP	91	64	3
TAP	91	96	6
TAP	91	128	5
TAP	91	160	4
TAP	91	192	1
TAP	91	224	2
TAP	91	256	3
TAP	91	288	6
TAP	91	320	5
TAP	91	352	4
TAP	92	0	0
TAP	92	32	1
TAP	92	64	2
TAP	92	96	7
TAP	92	128	6
TAP	92	160	5
TAP	92	192	0
TAP	92	224	1
TAP	92	256	2
TAP	92	288	7
TAP	92	320	6
TAP	92	352	5
TAP	93	0	3
TAP	93	32	2
TAP	93	64	1
TAP	93	96	4
TAP	93	128	5
TAP	93	160	6
TAP	93	192	3
TAP	93	224	2
TAP	93	256	1
TAP	93	288	4
TAP	93	320	5
TAP	93	352	6
TAP	94	0	2
TAP	94	32	1
TAP	94	64	0
TAP	94	96	5
TAP	94	128	6
TAP	94	160	7
TAP	94	192	2
TAP	94	224	1
TAP	94	256	0
TAP	94	288	5
TAP	94	320	6
TAP	94	352	7
TAP	95	0	3
TAP	95	32	2
TAP	95	64	1
TAP	95	96	0
TAP	95	128	7
TAP	95	160	6
TAP	95	192	2
TAP	95	192	5
TAP	95	224	1
TAP	95	256	0
TAP	95	288	7
TAP	95	320	6
TAP	95	352	5
TAP	96	0	1
TAP	96	0	4
TAP	96	32	0
TAP	96	64	7
TAP	96	96	6
TAP	96	128	5
TAP	96	160	4
TAP	96	192	0
TAP	96	192	3
TAP	96	224	7
TAP	96	256	6
TAP	96	288	5
TAP	96	320	4
TAP	96	352	3
HLD	97	0	0	288
TAP	97	0	2
HLD	97	192	7	96
TAP	98	0	1
TAP	98	24	2
TAP	98	48	3
TAP	98	72	4
TAP	98	96	5
TAP	98	120	6
TAP	98	144	7
TAP	98	168	0
TAP	98	192	1
TAP	98	192	6
TAP	98	216	5
TAP	98	240	4
TAP	98	264	3
TAP	98	288	2
TAP	98	312	1
TAP	98	336	0
TAP	98	360	7
BRK	99	0	1
HLD	99	0	6	576
TAP	100	0	7
TAP	100	96	7
TAP	100	192	7
STR	100	288	1
SI_	100	288	1	96	48	4
STR	100	288	5
SI_	100	288	5	96	48	0
BRK	101	0	1
BRK	101	0	5
TAP	101	96	2
TAP	101	96	6
TAP	101	192	3
TAP	101	240	7
TAP	101	288	2
TAP	101	336	6
STR	102	0	1
SCL	102	0	1	96	48	6
TAP	102	0	5
TAP	102	96	4
TAP	102	144	4
TAP	102	240	3
TAP	102	240	7
TAP	102	288	3
TAP	102	288	7
TAP	103	0	1
TAP	103	48	0
TAP	103	96	4
TAP	103	144	5
TAP	103	192	7
TAP	103	240	6
TAP	103	288	2
TAP	103	336	3
TAP	104	0	0
TAP	104	24	1
TAP	104	48	2
TAP	104	72	3
TAP	104	96	0
TAP	104	96	4
TAP	104	192	0
TAP	104	216	7
TAP	104	240	6
TAP	104	264	5
TAP	104	288	0
TAP	104	288	4
TAP	105	0	2
TAP	105	0	6
BRK	105	96	0
BRK	105	96	7
TAP	105	192	6
TAP	105	240	3
TAP	105	288	4
TAP	105	336	1
TAP	106	0	2
STR	106	0	6
SCR	106	0	6	96	48	1
TAP	106	96	3
TAP	106	144	3
TAP	106	240	0
TAP	106	240	4
TAP	106	288	0
TAP	106	288	4
TAP	107	0	1
TAP	107	48	1
TAP	107	96	7
TAP	107	144	7
TAP	107	192	5
TAP	107	240	5
TAP	107	288	3
HLD	107	336	3	96
TAP	108	48	2
TAP	108	96	3
TAP	108	144	4
TAP	108	192	5
TAP	108	240	6
STR	108	288	7
SCL	108	288	7	96	96	4
STR	109	0	4
SUL	109	0	4	96	96	7
STR	109	96	7
SCL	109	96	7	96	96	4
STR	109	192	4
SI_	109	192	4	96	96	0
STR	109	288	0
SCR	109	288	0	96	96	3
STR	110	0	3
SUR	110	0	3	96	96	0
STR	110	96	0
SCR	110	96	0	96	96	3
STR	110	192	3
SI_	110	192	3	96	96	7
STR	110	288	7
SCL	110	288	7	96	96	4
STR	111	0	4
SUL	111	0	4	96	96	7
STR	111	96	7
SCL	111	96	7	96	96	4
STR	111	192	4
SI_	111	192	4	96	96	0
STR	111	288	0
SCR	111	288	0	96	96	3
STR	112	0	3
SUR	112	0	3	96	96	0
STR	112	96	0
SCR	112	96	0	96	96	3
TAP	112	192	3
TAP	112	288	0
TAP	113	0	7
TAP	113	48	7
TAP	113	96	7
TAP	113	144	7
TAP	113	192	1
TAP	113	240	1
TAP	113	288	1
TAP	113	336	1
TAP	114	0	3
TAP	114	48	3
TAP	114	96	3
TAP	114	144	3
TAP	114	192	5
TAP	114	240	5
TAP	114	288	5
TAP	114	336	5
TAP	115	0	6
TAP	115	48	6
TAP	115	96	4
TAP	115	144	4
TAP	115	192	2
TAP	115	240	2
TAP	115	288	0
TAP	115	336	0
TAP	116	0	7
TAP	116	24	6
TAP	116	48	5
TAP	116	72	4
TAP	116	96	3
TAP	116	120	2
TAP	116	144	1
TAP	116	168	0
TAP	116	192	7
TAP	116	216	6
TAP	116	240	5
TAP	116	264	4
TAP	116	288	3
TAP	116	312	2
TAP	116	336	1
TAP	116	360	0
TAP	117	0	3
TAP	117	0	7
STR	117	96	1
SCR	117	96	1	96	48	4
TAP	117	144	0
TAP	117	192	1
TAP	117	288	6
TAP	118	0	4
TAP	118	0	5
STR	118	96	6
SCL	118	96	6	96	48	3
TAP	118	144	7
TAP	118	192	6
TAP	118	288	1
TAP	119	0	2
TAP	119	0	3
STR	119	96	0
SUR	119	96	0	96	48	4
TAP	119	144	7
TAP	119	192	0
TAP	119	288	6
TAP	120	0	4
TAP	120	0	5
STR	120	96	2
SI_	120	96	2	96	48	7
TAP	120	144	3
TAP	120	192	2
TAP	120	240	4
TAP	120	288	5
TAP	120	336	6
STR	121	0	7
SCR	121	0	7	96	96	2
STR	121	96	2
SI_	121	96	2	96	96	6
STR	121	192	6
SCL	121	192	6	96	192	7
HLD	121	288	3	192
STR	122	192	2
SUR	122	192	2	96	96	6
STR	122	288	6
SUR	122	288	6	96	96	2
STR	123	0	2
SCR	123	0	2	96	96	5
STR	123	96	5
SCR	123	96	5	96	96	0
STR	123	192	0
SCR	123	192	0	96	96	3
TAP	123	288	3
TAP	124	0	4
TAP	124	48	5
TAP	124	96	6
TAP	124	144	7
TAP	124	192	0
TAP	124	216	1
TAP	124	240	2
TAP	124	264	3
TAP	124	288	4
TAP	124	312	5
TAP	124	336	6
TAP	124	360	7
STR	125	0	0
SI_	125	0	0	96	48	4
TAP	125	0	4
STR	125	96	6
SI_	125	96	6	96	24	3
TAP	125	144	6
STR	125	192	1
SI_	125	192	1	96	24	5
TAP	125	240	1
STR	125	288	7
SI_	125	288	7	96	48	3
TAP	125	336	7
STR	126	0	0
SI_	126	0	0	96	48	4
TAP	126	48	0
STR	126	96	7
SI_	126	96	7	96	48	2
TAP	126	144	7
STR	126	192	1
SI_	126	192	1	96	24	4
TAP	126	240	1
STR	126	288	6
SI_	126	288	6	96	48	2
TAP	126	336	6
STR	127	0	0
SI_	127	0	0	96	48	4
TAP	127	48	0
STR	127	96	6
SI_	127	96	6	96	24	3
TAP	127	144	6
STR	127	192	1
SI_	127	192	1	96	24	5
TAP	127	240	1
TAP	127	288	7
TAP	127	336	7
TAP	128	0	0
STR	128	96	1
SCR	128	96	1	96	48	4
TAP	128	96	5
TAP	128	144	1
TAP	128	144	5
TAP	128	192	1
STR	128	192	5
SCR	128	192	5	96	48	0
TAP	129	0	1
TAP	129	48	1
TAP	129	96	3
TAP	129	96	7
TAP	129	144	3
TAP	129	144	7
TAP	129	192	6
TAP	129	240	6
TAP	129	288	0
TAP	129	288	4
TAP	129	336	0
TAP	129	336	4
TAP	130	0	1
TAP	130	0	5
TAP	130	48	1
TAP	130	48	5
TAP	130	96	2
TAP	130	96	6
TAP	130	144	2
TAP	130	144	6
TAP	130	192	3
TAP	130	192	7
TAP	130	240	3
TAP	130	240	7
TAP	130	288	0
TAP	130	288	4
TAP	130	336	0
TAP	130	336	4
HLD	131	0	1	372
HLD	131	0	5	372
BRK	132	0	4
TAP	132	24	3
TAP	132	48	2
TAP	132	72	1
BRK	132	96	0
BRK	132	96	4
TAP	132	120	7
TAP	132	144	6
TAP	132	168	5
BRK	132	192	0
BRK	132	192	4
TAP	132	288	2
STR	132	288	6
SI_	132	288	6	96	48	2
STR	133	0	1
SI_	133	0	1	96	48	5
TAP	133	0	6
TAP	133	96	1
STR	133	96	6
SI_	133	96	6	96	48	3
STR	133	192	2
SI_	133	192	2	96	48	0
TAP	133	192	6
TAP	133	288	2
STR	133	288	7
SI_	133	288	7	96	24	3
STR	134	0	1
SI_	134	0	1	96	48	4
TAP	134	0	7
TAP	134	96	1
STR	134	96	5
SI_	134	96	5	96	48	1
STR	134	192	0
SI_	134	192	0	96	48	4
TAP	134	192	5
TAP	134	288	0
STR	134	288	7
SI_	134	288	7	96	48	4
STR	135	0	0
SF_	135	0	0	96	48	4
TAP	135	0	7
TAP	135	96	0
STR	135	192	7
SF_	135	192	7	96	48	3
TAP	135	288	7
TAP	136	0	1
TAP	136	48	0
TAP	136	96	7
TAP	136	144	2
TAP	136	144	6
TAP	136	240	0
TAP	136	240	4
STR	136	288	0
SI_	136	288	0	96	48	4
TAP	136	288	4
TAP	137	0	0
STR	137	0	7
SI_	137	0	7	96	48	2
STR	137	96	1
SI_	137	96	1	96	48	4
TAP	137	96	7
TAP	137	192	1
STR	137	192	6
SI_	137	192	6	96	48	3
STR	137	288	2
SI_	137	288	2	96	48	0
TAP	137	288	6
TAP	138	0	2
STR	138	0	7
SF_	138	0	7	96	48	3
TAP	138	96	7
STR	138	192	0
SF_	138	192	0	96	48	4
TAP	138	288	0
TAP	139	0	2
TAP	139	0	6
TAP	139	48	2
TAP	139	48	6
TAP	139	144	1
TAP	139	144	5
TAP	139	192	1
TAP	139	192	5
TAP	139	288	4
TAP	139	288	6
TAP	139	336	4
TAP	139	336	6
TAP	140	48	1
TAP	140	48	3
TAP	140	96	1
TAP	140	96	3
TAP	140	288	3
TAP	140	320	4
TAP	140	352	3
BST	141	0	2
SCL	141	0	2	96	1824	3
BRK	141	0	5
TAP	144	0	0
TAP	144	96	0
TAP	144	192	0
TAP	144	288	0
TAP	145	0	0
TAP	145	96	0
TAP	145	192	0
TAP	145	288	0
TAP	146	0	0
TAP	146	96	0
STR	146	192	0
SF_	146	192	0	96	64	4
BRK	146	288	0

T_REC_TAP	762
T_REC_BRK	27
T_REC_XTP	0
T_REC_HLD	42
T_REC_XHO	0
T_REC_STR	136
T_REC_BST	1
T_REC_XST	0
T_REC_TTP	0
T_REC_THO	0
T_REC_SLD	137
T_REC_ALL	1105
T_NUM_TAP	898
T_NUM_BRK	28
T_NUM_HLD	42
T_NUM_SLD	137
T_NUM_ALL	1105
T_JUDGE_TAP	926
T_JUDGE_HLD	81
T_JUDGE_SLD	137
T_JUDGE_ALL	1144
TTM_EACHPAIRS	135
TTM_SCR_TAP	449000
TTM_SCR_BRK	72800
TTM_SCR_HLD	42000
TTM_SCR_SLD	205500
TTM_SCR_ALL	769300
TTM_SCR_S	743550
TTM_SCR_SS	766500
TTM_RAT_ACV	10036

