VERSION	0.00.00	1.03.00
FES_MODE	0
BPM_DEF	257.000	257.000	257.000	257.000
MET_DEF	4	4
RESOLUTION	384
CLK_DEF	384
COMPATIBLE_CODE	MA2

BPM	0	0	257.000
MET	0	0	4	4

TAP	6	0	3
HLD	6	0	4	288
TAP	6	96	3
TAP	6	192	3
STR	6	288	3
SCL	6	288	3	96	288	4
HLD	8	0	5	96
HLD	8	96	7	96
HLD	8	192	0	96
TAP	8	288	2
HLD	9	0	2	96
HLD	9	96	0	96
HLD	9	192	7	96
TAP	9	288	5
TAP	10	0	4
HLD	10	0	5	672
TAP	10	96	4
TAP	10	192	7
TAP	10	288	7
TAP	11	0	3
TAP	11	96	3
TAP	11	192	0
TAP	11	288	0
HLD	12	0	2	384
TAP	12	0	3
TAP	12	96	3
TAP	12	192	0
TAP	12	288	0
STR	13	0	4
SCR	13	0	4	96	96	7
TAP	13	288	0
TAP	13	288	7
TAP	14	0	0
HLD	14	0	1	384
TAP	14	96	0
TAP	14	192	3
TAP	14	288	3
STR	15	0	7
SCL	15	0	7	96	96	4
TAP	15	288	3
TAP	15	288	4
TAP	16	0	3
TAP	16	0	5
TAP	16	48	3
TAP	16	48	5
TAP	16	144	2
TAP	16	144	4
TAP	16	192	2
TAP	16	192	4
TAP	16	288	3
TAP	16	288	4
HLD	16	336	3	336
HLD	16	336	4	336
TAP	18	0	4
TAP	18	96	4
TAP	18	192	3
TAP	18	288	3
TAP	19	0	6
TAP	19	96	4
TAP	19	192	3
TAP	19	288	1
TAP	20	0	3
TAP	20	96	3
TAP	20	192	4
TAP	20	288	4
TAP	21	0	4
TAP	21	0	6
TAP	21	96	3
TAP	21	96	4
TAP	21	192	1
TAP	21	192	3
TAP	22	0	3
TAP	22	96	3
TAP	22	192	4
TAP	22	288	4
TAP	23	0	1
TAP	23	96	3
TAP	23	192	4
TAP	23	288	6
TAP	24	0	4
TAP	24	96	3
TAP	24	192	2
STR	24	288	2
SCL	24	288	2	96	192	5
TAP	25	288	3
TAP	25	288	4
TAP	26	0	4
TAP	26	0	5
TAP	26	96	3
TAP	26	96	5
TAP	26	192	2
TAP	26	192	5
TAP	26	288	1
TAP	26	288	5
STR	27	0	1
SCR	27	0	1	96	96	4
STR	27	192	5
SCR	27	192	5	96	96	0
TAP	28	0	2
TAP	28	96	2
TAP	28	96	3
TAP	28	192	1
TAP	28	192	4
TAP	28	288	0
TAP	28	288	5
TAP	29	0	6
TAP	29	0	7
TAP	29	96	4
TAP	29	96	5
TAP	29	192	3
TAP	29	192	6
TAP	30	0	2
TAP	30	0	3
TAP	30	96	2
TAP	30	96	4
TAP	30	192	2
TAP	30	192	5
TAP	30	288	2
TAP	30	288	6
STR	31	0	6
SCL	31	0	6	96	96	3
STR	31	192	2
SCL	31	192	2	96	96	7
TAP	32	0	5
TAP	32	96	4
TAP	32	96	5
TAP	32	192	3
TAP	32	192	6
TAP	32	288	2
TAP	32	288	7
TAP	33	0	0
STR	33	0	1
SI_	33	0	1	96	96	5
HLD	34	0	0	288
TAP	34	0	4
TAP	34	96	4
TAP	34	192	4
STR	34	288	4
SCR	34	288	4	96	288	3
TAP	36	0	4
TAP	36	0	5
TAP	36	96	3
TAP	36	96	6
TAP	36	192	2
TAP	36	192	3
TAP	36	288	1
TAP	36	288	4
TAP	37	0	0
TAP	37	96	4
TAP	37	96	5
TAP	37	192	7
TAP	37	288	2
TAP	37	288	3
STR	38	0	0
SI_	38	0	0	96	96	4
STR	38	192	7
SI_	38	192	7	96	96	3
HLD	39	0	0	672
TAP	39	192	2
TAP	39	288	4
TAP	40	0	6
TAP	40	96	7
TAP	40	144	7
TAP	40	240	5
TAP	40	288	5
HLD	41	0	6	96
HLD	41	96	4	96
HLD	41	192	3	96
TAP	41	288	1
HLD	42	0	1	96
HLD	42	96	3	96
HLD	42	192	4	96
TAP	42	288	6
HLD	43	0	6	1440
TAP	43	0	7
TAP	43	96	5
TAP	43	192	7
TAP	43	288	5
TAP	44	0	1
TAP	44	96	3
TAP	44	192	1
TAP	44	288	3
TAP	45	0	0
TAP	45	96	4
TAP	45	192	7
TAP	45	288	3
TAP	46	0	0
TAP	46	96	4
TAP	46	192	7
TAP	46	288	3
HLD	47	0	2	1440
TAP	47	0	3
TAP	47	96	1
TAP	47	192	3
TAP	47	288	1
TAP	48	0	5
TAP	48	96	7
TAP	48	192	5
TAP	48	288	7
TAP	49	0	4
TAP	49	96	0
TAP	49	192	3
TAP	49	288	7
TAP	50	0	4
TAP	50	96	0
TAP	50	192	3
TAP	50	288	7
STR	51	0	4
SI_	51	0	4	96	96	2
TAP	51	0	5
TAP	51	96	5
TAP	51	192	5
TAP	51	288	4
TAP	51	288	5
STR	52	0	4
SI_	52	0	4	96	96	1
TAP	52	0	5
TAP	52	96	5
TAP	52	192	5
TAP	52	288	4
TAP	52	288	5
STR	53	0	4
SI_	53	0	4	96	96	0
TAP	53	0	5
TAP	53	96	5
TAP	53	192	5
TAP	53	288	4
TAP	53	288	5
STR	54	0	4
SI_	54	0	4	96	96	7
TAP	54	0	5
TAP	54	96	5
TAP	54	192	5
TAP	54	288	4
TAP	54	288	5
TAP	55	0	3
TAP	55	0	6
TAP	55	96	2
TAP	55	96	7
HLD	55	192	0	384
STR	55	192	1
SCR	55	192	1	96	192	6
TAP	56	192	1
TAP	56	288	2
TAP	56	288	7
TAP	57	0	1
TAP	57	0	4
TAP	57	96	0
TAP	57	96	5
TAP	57	192	6
TAP	57	192	7
TAP	57	288	4
TAP	57	288	5
TAP	58	0	3
TAP	58	0	4
STR	58	96	2
SCL	58	96	2	96	96	7
STR	58	96	3
SCR	58	96	3	96	96	6
STR	59	0	0
SI_	59	0	0	96	96	4
TAP	59	0	6
TAP	59	96	5
TAP	59	192	6
TAP	59	240	6
TAP	59	288	6
TAP	60	0	5
STR	60	0	7
SI_	60	0	7	96	96	3
TAP	60	96	4
TAP	60	192	5
TAP	60	240	5
TAP	60	288	5
STR	61	0	0
SI_	61	0	0	96	96	4
TAP	61	0	6
TAP	61	96	5
TAP	61	192	6
TAP	61	240	6
TAP	61	288	6
TAP	62	0	5
STR	62	0	7
SI_	62	0	7	96	96	3
TAP	62	96	4
TAP	62	192	5
TAP	62	240	5
TAP	62	288	5
STR	63	0	0
SI_	63	0	0	96	96	3
TAP	63	0	7
TAP	63	96	6
TAP	63	192	7
TAP	63	240	7
TAP	63	288	7
STR	64	0	3
SI_	64	0	3	96	96	0
TAP	64	0	4
TAP	64	96	5
TAP	64	192	4
TAP	64	240	4
TAP	64	288	4
HLD	65	0	3	288
TAP	65	0	7
HLD	65	192	4	96
TAP	66	0	3
TAP	66	0	4
TAP	66	96	0
TAP	66	96	7
BRK	66	192	1
BRK	66	192	6
TAP	67	0	4
HLD	67	0	5	1344
TAP	67	192	4
TAP	67	288	4
TAP	68	0	3
TAP	68	192	3
TAP	68	288	3
TAP	69	0	2
TAP	69	192	2
TAP	69	288	2
TAP	70	0	3
TAP	70	96	4
TAP	70	192	2
HLD	71	0	2	1344
TAP	71	0	3
TAP	71	192	3
TAP	71	288	3
TAP	72	0	4
TAP	72	192	4
TAP	72	288	4
TAP	73	0	5
TAP	73	192	5
TAP	73	288	5
TAP	74	0	4
TAP	74	96	3
TAP	74	192	5
STR	75	0	0
SI_	75	0	0	96	96	5
HLD	75	0	6	192
HLD	76	0	1	192
STR	76	0	7
SI_	76	0	7	96	96	2
STR	77	0	0
SI_	77	0	0	96	96	4
HLD	77	0	6	192
HLD	78	0	1	192
STR	78	0	7
SI_	78	0	7	96	96	3
TAP	79	0	0
TAP	79	0	4
TAP	79	96	1
TAP	79	192	2
TAP	79	192	6
TAP	79	288	3
TAP	80	0	0
TAP	80	0	4
TAP	80	96	5
TAP	80	192	2
TAP	80	192	6
TAP	80	288	7
TAP	81	0	0
TAP	81	0	4
TAP	81	96	6
TAP	81	192	1
TAP	81	192	5
TAP	81	288	4
TAP	82	0	3
TAP	82	0	7
TAP	82	96	2
TAP	82	96	6
TAP	82	192	1
TAP	82	192	5
HLD	83	0	4	96
TAP	83	0	5
TAP	83	48	5
TAP	83	96	5
TAP	83	192	5
HLD	83	192	6	96
TAP	83	240	5
TAP	83	288	5
TAP	84	0	6
TAP	84	0	7
TAP	84	96	4
TAP	84	96	5
TAP	84	192	3
TAP	84	192	6
TAP	85	0	2
HLD	85	0	3	96
TAP	85	48	2
TAP	85	96	2
HLD	85	192	1	96
TAP	85	192	2
TAP	85	240	2
TAP	85	288	2
TAP	86	0	0
TAP	86	0	1
TAP	86	96	2
TAP	86	96	3
TAP	86	192	1
TAP	86	192	4
TAP	87	0	6
TAP	87	96	3
TAP	87	96	5
TAP	87	192	1
TAP	87	288	2
TAP	87	288	4
TAP	88	0	7
TAP	88	96	3
TAP	88	96	5
TAP	88	192	0
TAP	88	288	2
TAP	88	288	4
STR	89	0	1
SCR	89	0	1	96	192	4
STR	89	0	5
SCR	89	0	5	96	192	0
TAP	90	0	3
TAP	90	0	7
TAP	90	96	2
TAP	90	96	6
TAP	90	192	1
TAP	90	192	5
HLD	91	0	4	96
HLD	91	96	5	96
HLD	91	192	6	96
HLD	91	288	7	96
HLD	92	0	0	96
HLD	92	96	1	96
HLD	92	192	2	96
HLD	92	288	3	96
HLD	93	0	4	96
HLD	93	96	5	96
HLD	93	192	6	96
HLD	93	288	7	96
HLD	94	0	0	96
HLD	94	96	1	96
HLD	94	192	2	96
TAP	94	288	3
HLD	95	0	3	96
HLD	95	96	2	96
HLD	95	192	1	96
TAP	95	288	0
HLD	96	0	4	96
HLD	96	96	5	96
HLD	96	192	6	96
TAP	96	288	7
STR	97	0	3
SI_	97	0	3	96	96	0
STR	97	192	7
SI_	97	192	7	96	96	4
STR	98	0	3
SCL	98	0	3	96	288	4
HLD	99	0	7	672
TAP	100	0	3
TAP	100	96	3
TAP	100	192	3
STR	100	288	3
SCL	100	288	3	96	288	4
TAP	102	0	2
TAP	102	0	3
TAP	102	96	1
TAP	102	96	4
TAP	102	192	4
TAP	102	192	5
TAP	102	288	3
TAP	102	288	6
TAP	103	0	7
TAP	103	96	2
TAP	103	96	3
TAP	103	192	0
TAP	103	288	4
TAP	103	288	5
STR	104	0	7
SI_	104	0	7	96	96	3
STR	104	192	0
SI_	104	192	0	96	96	4
HLD	105	0	7	672
TAP	105	192	5
TAP	105	288	3
TAP	106	0	1
TAP	106	96	0
TAP	106	144	0
TAP	106	240	2
TAP	106	288	2
HLD	107	0	1	96
HLD	107	96	3	96
HLD	107	192	4	96
TAP	107	288	6
HLD	108	0	6	96
HLD	108	96	4	96
HLD	108	192	3	96
TAP	108	288	1
TAP	109	0	0
HLD	109	0	1	1440
TAP	109	96	2
TAP	109	192	0
TAP	109	288	2
TAP	110	0	6
TAP	110	96	4
TAP	110	192	6
TAP	110	288	4
TAP	111	0	7
TAP	111	96	3
TAP	111	192	0
TAP	111	288	4
TAP	112	0	7
TAP	112	96	3
TAP	112	192	0
TAP	112	288	4
TAP	113	0	4
HLD	113	0	5	1440
TAP	113	96	6
TAP	113	192	4
TAP	113	288	6
TAP	114	0	2
TAP	114	96	0
TAP	114	192	2
TAP	114	288	0
TAP	115	0	3
TAP	115	96	7
TAP	115	192	4
TAP	115	288	0
TAP	116	0	3
TAP	116	96	7
TAP	116	192	4
TAP	116	288	0
TAP	117	0	2
STR	117	0	3
SI_	117	0	3	96	96	5
TAP	117	96	2
TAP	117	192	2
TAP	117	288	2
TAP	117	288	3
TAP	118	0	2
STR	118	0	3
SI_	118	0	3	96	96	6
TAP	118	96	2
TAP	118	192	2
TAP	118	288	2
TAP	118	288	3
TAP	119	0	2
STR	119	0	3
SI_	119	0	3	96	96	7
TAP	119	96	2
TAP	119	192	2
TAP	119	288	2
TAP	119	288	3
TAP	120	0	2
STR	120	0	3
SI_	120	0	3	96	96	0
TAP	120	96	2
TAP	120	192	2
TAP	120	288	2
TAP	120	288	3
TAP	121	0	1
TAP	121	0	4
TAP	121	96	0
TAP	121	96	5
STR	121	192	6
SLL	121	192	6	96	192	1
HLD	121	192	7	384
TAP	122	192	6
TAP	122	288	0
TAP	122	288	5
TAP	123	0	3
TAP	123	0	6
TAP	123	96	2
TAP	123	96	7
TAP	123	192	0
TAP	123	192	1
TAP	123	288	2
TAP	123	288	3
TAP	124	0	3
TAP	124	0	4
TAP	124	96	4
TAP	124	96	5
TAP	124	192	6
TAP	124	192	7
TAP	125	0	1
STR	125	0	7
SI_	125	0	7	96	96	3
TAP	125	96	2
TAP	125	192	1
TAP	125	240	1
TAP	125	288	1
STR	126	0	0
SI_	126	0	0	96	96	4
TAP	126	0	2
TAP	126	96	3
TAP	126	192	2
TAP	126	240	2
TAP	126	288	2
TAP	127	0	1
STR	127	0	7
SI_	127	0	7	96	96	3
TAP	127	96	2
TAP	127	192	1
TAP	127	240	1
TAP	127	288	1
STR	128	0	0
SI_	128	0	0	96	96	4
TAP	128	0	2
TAP	128	96	3
TAP	128	192	2
TAP	128	240	2
TAP	128	288	2
TAP	129	0	0
STR	129	0	7
SI_	129	0	7	96	96	4
TAP	129	96	1
TAP	129	192	0
TAP	129	240	0
TAP	129	288	0
TAP	130	0	3
STR	130	0	4
SI_	130	0	4	96	96	7
TAP	130	96	2
TAP	130	192	3
TAP	130	240	3
TAP	130	288	3
TAP	131	0	0
HLD	131	0	4	288
HLD	131	192	3	96
TAP	132	0	3
TAP	132	0	4
TAP	132	96	0
TAP	132	96	7
BRK	132	192	1
BRK	132	192	6
TAP	133	0	0
TAP	133	0	7
TAP	133	96	0
TAP	133	96	7
TAP	133	192	5
TAP	133	192	6
TAP	133	288	5
TAP	133	288	6
TAP	134	0	3
TAP	134	0	4
TAP	134	96	3
TAP	134	96	4
TAP	134	192	1
TAP	134	192	2
TAP	134	288	1
TAP	134	288	2
TAP	135	0	0
TAP	135	0	7
TAP	135	96	5
TAP	135	96	6
TAP	135	192	3
TAP	135	192	4
TAP	135	288	1
TAP	135	288	2
TAP	136	0	0
TAP	136	0	7
TAP	136	96	5
TAP	136	96	6
TAP	136	192	3
TAP	136	192	4
TAP	136	288	2
TAP	136	288	5
TAP	137	0	6
TAP	137	0	7
TAP	137	96	4
TAP	137	96	5
TAP	137	192	2
TAP	137	192	3
TAP	137	288	0
TAP	137	288	1
TAP	138	0	6
TAP	138	0	7
TAP	138	96	4
TAP	138	96	5
TAP	138	192	2
TAP	138	192	3
TAP	138	288	0
TAP	138	288	1
TAP	139	0	0
TAP	139	0	6
TAP	139	48	0
TAP	139	48	6
TAP	139	144	1
TAP	139	144	7
TAP	139	192	1
TAP	139	192	7
TAP	139	288	0
TAP	139	288	7
HLD	139	336	0	96
HLD	139	336	7	96
TAP	140	96	0
TAP	140	96	7
HLD	141	0	6	2208
STR	141	0	7
SCL	141	0	7	96	1056	0
TAP	145	0	7
TAP	145	96	7
TAP	145	192	7
TAP	145	288	7
TAP	146	0	7
TAP	146	96	7
TAP	146	192	7
TAP	146	288	7

T_REC_TAP	528
T_REC_BRK	4
T_REC_XTP	0
T_REC_HLD	72
T_REC_XHO	0
T_REC_STR	49
T_REC_BST	0
T_REC_XST	0
T_REC_TTP	0
T_REC_THO	0
T_REC_SLD	49
T_REC_ALL	702
T_NUM_TAP	577
T_NUM_BRK	4
T_NUM_HLD	72
T_NUM_SLD	49
T_NUM_ALL	702
T_JUDGE_TAP	581
T_JUDGE_HLD	230
T_JUDGE_SLD	49
T_JUDGE_ALL	860
TTM_EACHPAIRS	173
TTM_SCR_TAP	288500
TTM_SCR_BRK	10400
TTM_SCR_HLD	72000
TTM_SCR_SLD	73500
TTM_SCR_ALL	444400
TTM_SCR_S	430700
TTM_SCR_SS	444000
TTM_RAT_ACV	10009

