VERSION	0.00.00	1.03.00
FES_MODE	0
BPM_DEF	257.000	257.000	257.000	257.000
MET_DEF	4	4
RESOLUTION	384
CLK_DEF	384
COMPATIBLE_CODE	MA2

BPM	0	0	257.000
MET	0	0	4	4

TAP	6	0	5
TAP	6	192	4
TAP	6	192	5
TAP	7	0	2
TAP	7	192	2
TAP	7	192	3
TAP	8	0	4
TAP	8	192	3
TAP	8	192	4
TAP	9	0	2
TAP	9	0	5
BRK	9	192	1
BRK	9	192	6
TAP	10	0	5
TAP	10	96	5
TAP	10	192	5
TAP	11	0	3
TAP	11	96	3
TAP	11	192	3
TAP	11	192	4
TAP	12	0	2
TAP	12	96	2
TAP	12	192	2
TAP	13	0	4
TAP	13	96	4
TAP	13	192	3
TAP	13	192	4
TAP	14	0	6
TAP	14	96	6
TAP	14	192	6
TAP	15	0	0
TAP	15	0	7
TAP	15	96	0
TAP	15	96	7
STR	15	192	0
SXL	15	192	0	96	480	3
STR	15	192	7
SXR	15	192	7	96	480	4
TAP	17	192	2
TAP	17	192	5
HLD	18	0	5	192
TAP	18	192	4
TAP	19	0	4
TAP	19	0	5
TAP	19	192	3
TAP	19	192	4
HLD	20	0	2	192
TAP	20	192	3
TAP	21	0	2
TAP	21	0	3
TAP	21	192	1
TAP	21	192	4
HLD	22	0	5	192
TAP	22	192	4
HLD	23	0	2	192
TAP	23	192	3
HLD	24	0	4	192
HLD	24	192	3	192
STR	25	0	4
SI_	25	0	4	96	192	0
TAP	26	0	1
TAP	26	192	0
TAP	26	192	2
TAP	27	0	1
TAP	27	96	1
TAP	27	192	1
TAP	28	0	6
TAP	28	192	5
TAP	28	192	7
TAP	29	0	6
TAP	29	96	6
TAP	29	192	6
TAP	30	0	5
TAP	30	96	5
TAP	30	192	4
TAP	31	0	2
TAP	31	96	2
TAP	31	192	3
TAP	32	0	4
TAP	32	0	5
TAP	32	192	2
TAP	32	192	3
TAP	33	0	3
TAP	33	0	4
TAP	33	96	3
TAP	33	96	4
STR	33	192	3
SI_	33	192	3	96	288	0
STR	33	192	4
SI_	33	192	4	96	288	7
TAP	35	0	1
TAP	35	96	1
TAP	35	192	0
TAP	35	192	1
TAP	36	0	6
TAP	36	96	6
TAP	36	192	6
TAP	36	192	7
TAP	37	0	5
TAP	37	96	4
TAP	37	192	3
TAP	37	288	2
TAP	38	0	3
TAP	38	0	4
TAP	38	96	3
TAP	38	96	4
TAP	38	192	3
TAP	38	192	4
TAP	39	0	5
TAP	39	96	5
TAP	39	192	4
TAP	39	192	5
TAP	40	0	2
TAP	40	96	2
TAP	40	192	2
TAP	40	192	3
TAP	41	0	1
TAP	41	96	0
TAP	41	192	7
TAP	41	288	6
TAP	42	0	0
TAP	42	0	7
TAP	42	96	0
TAP	42	96	7
TAP	42	192	1
TAP	42	192	6
TAP	43	0	5
TAP	43	96	5
TAP	43	192	4
TAP	43	288	4
TAP	44	0	3
TAP	44	96	2
TAP	44	192	0
TAP	44	192	1
TAP	45	0	2
TAP	45	96	2
TAP	45	192	3
TAP	45	288	3
TAP	46	0	4
TAP	46	96	5
TAP	46	192	6
TAP	46	192	7
TAP	47	0	6
TAP	47	96	6
TAP	47	192	7
TAP	47	288	7
TAP	48	0	0
TAP	48	96	1
TAP	48	192	2
TAP	48	192	3
TAP	49	0	1
TAP	49	96	1
TAP	49	192	0
TAP	49	288	0
TAP	50	0	6
TAP	50	0	7
TAP	50	96	6
TAP	50	96	7
TAP	50	192	0
TAP	50	192	5
HLD	51	0	2	192
TAP	51	192	3
TAP	52	0	4
TAP	52	96	5
TAP	52	192	3
TAP	52	192	6
HLD	53	0	5	192
TAP	53	192	4
TAP	54	0	3
TAP	54	96	2
TAP	54	192	1
TAP	54	192	4
TAP	55	0	1
TAP	55	96	1
STR	55	192	0
SCL	55	192	0	96	192	5
TAP	55	192	1
TAP	56	192	3
TAP	56	192	4
HLD	57	0	2	192
TAP	57	192	3
TAP	58	0	4
TAP	58	96	3
TAP	58	192	2
TAP	58	192	5
TAP	59	0	2
TAP	59	0	3
TAP	59	96	2
TAP	59	96	3
TAP	59	192	2
TAP	59	192	3
TAP	59	288	2
TAP	59	288	3
TAP	60	0	4
TAP	60	0	5
TAP	60	96	4
TAP	60	96	5
TAP	60	192	4
TAP	60	192	5
TAP	60	288	4
TAP	60	288	5
TAP	61	0	2
TAP	61	0	3
TAP	61	96	2
TAP	61	96	3
TAP	61	192	4
TAP	61	192	5
TAP	61	288	4
TAP	61	288	5
TAP	62	0	2
TAP	62	0	3
TAP	62	96	2
TAP	62	96	3
TAP	62	192	1
TAP	62	192	4
TAP	63	0	6
TAP	63	0	7
TAP	63	96	6
TAP	63	96	7
TAP	63	192	6
TAP	63	192	7
TAP	63	288	6
TAP	63	288	7
TAP	64	0	0
TAP	64	0	1
TAP	64	96	0
TAP	64	96	1
TAP	64	192	0
TAP	64	192	1
TAP	64	288	0
TAP	64	288	1
HLD	65	0	0	192
HLD	65	0	7	192
TAP	66	0	0
TAP	66	0	7
TAP	66	96	1
TAP	66	96	6
BRK	66	192	2
BRK	66	192	5
HLD	67	0	2	384
HLD	68	0	3	384
HLD	69	0	4	384
TAP	70	0	5
HLD	71	0	6	384
HLD	72	0	7	384
HLD	73	0	0	384
TAP	74	0	1
HLD	75	0	2	192
HLD	75	0	3	192
HLD	76	0	4	192
HLD	76	0	5	192
HLD	77	0	6	192
HLD	77	0	7	192
HLD	78	0	0	192
HLD	78	0	1	192
TAP	79	0	2
TAP	79	0	3
TAP	79	192	4
TAP	79	192	5
TAP	80	0	6
TAP	80	0	7
TAP	80	192	0
TAP	80	192	1
TAP	81	0	3
TAP	81	0	4
TAP	81	192	5
TAP	81	192	7
TAP	82	0	0
TAP	82	0	2
BRK	82	192	1
BRK	82	192	6
HLD	83	0	5	192
HLD	83	192	4	192
TAP	84	0	5
TAP	84	96	5
TAP	84	192	3
TAP	84	192	6
HLD	85	0	2	192
HLD	85	192	3	192
TAP	86	0	2
TAP	86	96	2
TAP	86	192	1
TAP	86	192	4
HLD	87	0	6	192
HLD	87	192	7	192
TAP	88	0	6
TAP	88	96	6
TAP	88	192	0
TAP	88	192	5
HLD	89	0	0	192
HLD	89	192	7	192
TAP	90	0	0
TAP	90	96	0
TAP	90	192	1
TAP	90	192	6
STR	91	0	4
SCR	91	0	4	96	480	2
STR	93	0	3
SCL	93	0	3	96	480	5
STR	95	0	7
SCL	95	0	7	96	480	1
STR	97	0	0
SCR	97	0	0	96	480	6
HLD	99	0	0	192
HLD	99	0	7	192
TAP	100	0	0
TAP	100	0	7
TAP	100	96	1
TAP	100	96	6
BRK	100	192	2
BRK	100	192	5
TAP	101	0	7
TAP	101	96	7
TAP	101	192	6
TAP	101	288	6
TAP	102	0	5
TAP	102	96	4
TAP	102	192	2
TAP	102	192	3
TAP	103	0	4
TAP	103	0	5
TAP	103	96	4
TAP	103	96	5
TAP	103	192	2
TAP	103	192	3
TAP	103	288	2
TAP	103	288	3
TAP	104	0	4
TAP	104	0	5
TAP	104	96	4
TAP	104	96	5
TAP	104	192	3
TAP	104	192	6
TAP	105	0	0
TAP	105	96	0
TAP	105	192	1
TAP	105	288	1
TAP	106	0	2
TAP	106	96	3
TAP	106	192	4
TAP	106	192	5
TAP	107	0	2
TAP	107	0	3
TAP	107	96	2
TAP	107	96	3
TAP	107	192	4
TAP	107	192	5
TAP	107	288	4
TAP	107	288	5
TAP	108	0	2
TAP	108	0	3
TAP	108	96	2
TAP	108	96	3
TAP	108	192	1
TAP	108	192	4
TAP	109	0	3
TAP	109	96	2
TAP	109	192	1
TAP	109	192	4
TAP	109	288	0
TAP	110	0	7
TAP	110	96	6
TAP	110	192	0
TAP	110	192	5
TAP	111	0	4
TAP	111	96	5
TAP	111	192	3
TAP	111	192	6
TAP	111	288	7
TAP	112	0	0
TAP	112	0	1
TAP	112	96	0
TAP	112	96	1
TAP	112	192	2
TAP	112	192	7
TAP	113	0	0
TAP	113	96	1
TAP	113	192	2
TAP	113	192	7
TAP	113	288	3
TAP	114	0	4
TAP	114	96	5
TAP	114	192	3
TAP	114	192	6
TAP	115	0	4
TAP	115	96	3
TAP	115	192	2
TAP	115	192	5
TAP	115	288	1
TAP	116	0	0
TAP	116	0	7
TAP	116	96	0
TAP	116	96	7
TAP	116	192	1
TAP	116	192	6
HLD	117	0	2	192
HLD	117	192	3	192
TAP	118	0	2
TAP	118	96	3
TAP	118	96	4
TAP	118	192	4
TAP	118	192	5
HLD	119	0	5	192
HLD	119	192	4	192
TAP	120	0	5
TAP	120	96	3
TAP	120	96	4
TAP	120	192	2
TAP	120	192	3
TAP	121	0	0
TAP	121	0	1
TAP	121	96	0
TAP	121	96	1
STR	121	192	0
SCL	121	192	0	96	192	5
TAP	121	192	1
TAP	122	192	3
TAP	122	192	4
HLD	123	0	7	192
HLD	123	192	0	192
TAP	124	0	7
TAP	124	96	0
TAP	124	96	7
BRK	124	192	1
BRK	124	192	6
TAP	125	0	3
TAP	125	96	2
TAP	125	192	0
TAP	125	192	1
TAP	125	288	6
TAP	125	288	7
TAP	126	0	0
TAP	126	0	5
TAP	126	96	1
TAP	126	96	4
TAP	126	192	2
TAP	126	192	3
TAP	127	0	4
TAP	127	96	5
TAP	127	192	6
TAP	127	192	7
TAP	127	288	0
TAP	127	288	1
TAP	128	0	2
TAP	128	0	7
TAP	128	96	3
TAP	128	96	6
TAP	128	192	4
TAP	128	192	5
TAP	129	0	7
TAP	129	96	6
TAP	129	192	4
TAP	129	192	5
TAP	129	288	2
TAP	129	288	3
TAP	130	0	1
TAP	130	0	4
TAP	130	96	0
TAP	130	96	5
TAP	130	192	6
TAP	130	192	7
HLD	131	0	0	192
HLD	131	0	7	192
TAP	132	0	0
TAP	132	0	7
TAP	132	96	1
TAP	132	96	6
BRK	132	192	2
BRK	132	192	5
TAP	133	0	0
TAP	133	0	1
TAP	133	96	2
TAP	133	192	3
TAP	133	288	4
TAP	133	288	5
TAP	134	0	6
TAP	134	0	7
TAP	134	96	5
TAP	134	192	4
TAP	134	288	2
TAP	134	288	3
TAP	135	0	0
TAP	135	0	1
TAP	135	96	2
TAP	135	192	3
TAP	135	288	4
TAP	135	288	5
TAP	136	0	6
TAP	136	0	7
TAP	136	96	5
TAP	136	192	3
TAP	136	192	4
TAP	136	288	2
TAP	137	0	0
TAP	137	0	1
TAP	137	96	0
TAP	137	96	1
TAP	137	192	2
TAP	137	192	3
TAP	137	288	4
TAP	137	288	5
TAP	138	0	6
TAP	138	0	7
TAP	138	96	6
TAP	138	96	7
TAP	138	192	4
TAP	138	192	5
TAP	138	288	2
TAP	138	288	3
TAP	139	0	0
TAP	139	0	1
TAP	139	96	2
TAP	139	96	7
TAP	139	192	3
TAP	139	192	6
TAP	139	288	4
TAP	139	288	5
TAP	140	0	2
TAP	140	0	3
HLD	140	96	1	192
HLD	140	96	4	192
BRK	141	0	0
BRK	141	0	7

T_REC_TAP	442
T_REC_BRK	14
T_REC_XTP	0
T_REC_HLD	45
T_REC_XHO	0
T_REC_STR	11
T_REC_BST	0
T_REC_XST	0
T_REC_TTP	0
T_REC_THO	0
T_REC_SLD	11
T_REC_ALL	523
T_NUM_TAP	453
T_NUM_BRK	14
T_NUM_HLD	45
T_NUM_SLD	11
T_NUM_ALL	523
T_JUDGE_TAP	467
T_JUDGE_HLD	102
T_JUDGE_SLD	11
T_JUDGE_ALL	580
TTM_EACHPAIRS	170
TTM_SCR_TAP	226500
TTM_SCR_BRK	36400
TTM_SCR_HLD	45000
TTM_SCR_SLD	16500
TTM_SCR_ALL	324400
TTM_SCR_S	313350
TTM_SCR_SS	323000
TTM_RAT_ACV	10043

