VERSION	0.00.00	1.03.00
FES_MODE	0
BPM_DEF	257.000	257.000	257.000	257.000
MET_DEF	4	4
RESOLUTION	384
CLK_DEF	384
COMPATIBLE_CODE	MA2

BPM	0	0	257.000
MET	0	0	4	4

TAP	2	0	3
TAP	4	0	4
TAP	6	0	3
TAP	7	0	3
TAP	8	0	4
TAP	9	0	4
TAP	10	0	3
TAP	10	192	3
TAP	11	0	3
TAP	12	0	2
TAP	12	192	2
TAP	13	0	2
TAP	14	0	1
TAP	14	192	1
TAP	15	0	1
TAP	16	0	0
TAP	16	192	0
TAP	17	0	0
TAP	17	0	7
HLD	18	0	7	384
HLD	20	0	0	384
HLD	22	0	1	384
HLD	24	0	2	384
TAP	26	0	3
TAP	26	192	3
TAP	27	0	3
TAP	28	0	4
TAP	28	192	4
TAP	29	0	3
TAP	29	0	4
TAP	30	0	5
TAP	30	192	5
TAP	31	0	5
TAP	32	0	6
TAP	32	192	6
TAP	33	0	6
TAP	33	0	7
BRK	34	0	0
BRK	34	0	7
TAP	35	0	6
TAP	35	192	6
TAP	36	0	5
TAP	36	192	5
TAP	37	0	4
TAP	37	192	3
TAP	38	0	3
TAP	38	0	4
TAP	39	0	2
TAP	39	192	2
TAP	40	0	1
TAP	40	192	1
TAP	41	0	0
TAP	41	192	7
TAP	42	0	0
TAP	42	0	7
TAP	43	0	1
TAP	43	192	1
TAP	44	0	2
TAP	44	192	2
TAP	45	0	3
TAP	45	192	4
TAP	46	0	3
TAP	46	0	4
TAP	47	0	5
TAP	47	192	5
TAP	48	0	6
TAP	48	192	6
TAP	49	0	7
TAP	49	192	0
TAP	50	0	0
TAP	50	0	7
TAP	51	0	0
TAP	51	0	1
TAP	51	192	0
TAP	51	192	1
TAP	52	0	0
TAP	52	0	1
TAP	53	0	6
TAP	53	0	7
TAP	53	192	6
TAP	53	192	7
TAP	54	0	6
TAP	54	0	7
TAP	55	0	0
TAP	55	0	1
TAP	55	192	0
TAP	55	192	1
TAP	56	0	0
TAP	56	0	1
TAP	57	0	6
TAP	57	0	7
TAP	57	192	6
TAP	57	192	7
TAP	58	0	6
TAP	58	0	7
STR	59	0	0
SI_	59	0	0	96	672	4
STR	63	0	7
SI_	63	0	7	96	672	3
HLD	67	0	0	384
HLD	69	0	7	384
HLD	71	0	6	384
HLD	73	0	5	384
TAP	75	0	4
TAP	75	192	4
TAP	76	0	4
TAP	76	192	4
TAP	77	0	3
TAP	77	192	3
TAP	78	0	3
TAP	78	192	3
TAP	79	0	2
TAP	79	192	2
TAP	80	0	2
TAP	80	192	2
HLD	81	0	1	384
TAP	83	0	0
TAP	83	192	0
TAP	84	0	0
TAP	84	0	7
TAP	85	0	1
TAP	85	192	1
TAP	86	0	0
TAP	86	0	1
TAP	87	0	2
TAP	87	192	2
TAP	88	0	2
TAP	88	0	3
TAP	89	0	4
TAP	89	192	4
TAP	90	0	3
TAP	90	0	4
STR	91	0	3
SI_	91	0	3	96	672	0
STR	95	0	4
SI_	95	0	4	96	672	7
BRK	99	0	0
BRK	99	0	7
TAP	101	0	0
TAP	101	96	0
TAP	101	192	0
TAP	102	0	1
TAP	102	96	1
TAP	102	192	1
TAP	103	0	2
TAP	103	96	2
TAP	103	192	2
TAP	104	0	3
TAP	104	96	3
TAP	104	192	3
TAP	104	192	4
TAP	105	0	4
TAP	105	96	4
TAP	105	192	4
TAP	106	0	5
TAP	106	96	5
TAP	106	192	5
TAP	107	0	6
TAP	107	96	6
TAP	107	192	6
TAP	108	0	7
TAP	108	96	7
TAP	108	192	0
TAP	108	192	7
TAP	109	0	6
TAP	109	96	6
TAP	109	192	6
TAP	110	0	5
TAP	110	96	5
TAP	110	192	5
TAP	111	0	4
TAP	111	96	4
TAP	111	192	4
TAP	112	0	3
TAP	112	96	3
TAP	112	192	3
TAP	112	192	4
TAP	113	0	2
TAP	113	96	2
TAP	113	192	2
TAP	114	0	1
TAP	114	96	1
TAP	114	192	1
TAP	115	0	0
TAP	115	96	0
TAP	115	192	0
TAP	116	0	7
TAP	116	96	7
TAP	116	192	0
TAP	116	192	7
HLD	117	0	0	384
HLD	117	0	1	384
HLD	119	0	2	384
HLD	119	0	3	384
HLD	121	0	4	384
HLD	121	0	5	384
HLD	123	0	6	384
HLD	123	0	7	384
TAP	125	0	0
TAP	125	96	0
TAP	125	192	0
TAP	126	0	7
TAP	126	96	7
TAP	126	192	0
TAP	126	192	7
TAP	127	0	6
TAP	127	96	6
TAP	127	192	6
TAP	128	0	5
TAP	128	96	5
TAP	128	192	4
TAP	128	192	5
TAP	129	0	4
TAP	129	96	4
TAP	129	192	4
TAP	130	0	3
TAP	130	96	3
TAP	130	192	3
TAP	130	192	4
TAP	131	0	3
TAP	131	0	4
TAP	133	0	1
TAP	133	96	1
TAP	133	192	1
TAP	134	0	2
TAP	134	96	2
TAP	134	192	2
TAP	135	0	3
TAP	135	96	3
TAP	135	192	3
TAP	136	0	4
TAP	136	96	4
TAP	136	192	3
TAP	136	192	4
TAP	137	0	5
TAP	137	96	5
TAP	137	192	5
TAP	138	0	6
TAP	138	96	6
TAP	138	192	6
HLD	139	0	0	384
HLD	139	0	7	384
BRK	141	0	0
BRK	141	0	7

T_REC_TAP	211
T_REC_BRK	6
T_REC_XTP	0
T_REC_HLD	19
T_REC_XHO	0
T_REC_STR	4
T_REC_BST	0
T_REC_XST	0
T_REC_TTP	0
T_REC_THO	0
T_REC_SLD	4
T_REC_ALL	244
T_NUM_TAP	215
T_NUM_BRK	6
T_NUM_HLD	19
T_NUM_SLD	4
T_NUM_ALL	244
T_JUDGE_TAP	221
T_JUDGE_HLD	76
T_JUDGE_SLD	4
T_JUDGE_ALL	301
TTM_EACHPAIRS	40
TTM_SCR_TAP	107500
TTM_SCR_BRK	15600
TTM_SCR_HLD	19000
TTM_SCR_SLD	6000
TTM_SCR_ALL	148100
TTM_SCR_S	143100
TTM_SCR_SS	147500
TTM_RAT_ACV	10040

