VERSION	0.00.00	1.03.00
FES_MODE	0
BPM_DEF	238.000	238.000	238.000	238.000
MET_DEF	4	4
RESOLUTION	384
CLK_DEF	384
COMPATIBLE_CODE	MA2

BPM	0	0	238.000

STR	2	0	7
SCL	2	0	7	96	96	5
TAP	3	0	4
TAP	3	48	3
TAP	3	96	2
TAP	3	192	1
TAP	3	192	5
STR	4	0	7
SCL	4	0	7	96	96	5
TAP	5	0	4
TAP	5	48	3
TAP	5	96	2
TAP	5	192	0
TAP	5	192	7
STR	6	0	7
SCL	6	0	7	96	96	5
BRK	7	0	4
BRK	7	48	3
BRK	7	96	2
TAP	7	192	1
TAP	7	192	5
TAP	8	0	5
TAP	8	96	4
TAP	8	96	6
TAP	8	192	7
TAP	8	240	0
TAP	8	336	1
TAP	8	336	3
TAP	9	48	0
TAP	9	96	7
TAP	9	192	1
TAP	9	192	6
TAP	9	240	1
TAP	9	240	6
TAP	9	336	2
TAP	9	336	5
STR	10	48	3
SXR	10	48	3	96	120	1
STR	10	48	4
SXL	10	48	4	96	120	6
TAP	11	0	6
STR	11	48	6
SI_	11	48	6	96	48	4
STR	11	144	7
SI_	11	144	7	96	48	1
STR	11	240	6
SI_	11	240	6	96	48	3
STR	11	336	7
SI_	11	336	7	96	48	2
STR	12	48	6
SI_	12	48	6	96	48	2
TAP	12	144	7
TAP	12	192	7
TAP	12	288	0
TAP	12	288	5
TAP	13	0	1
STR	13	48	1
SI_	13	48	1	96	48	3
STR	13	144	0
SI_	13	144	0	96	48	6
STR	13	240	1
SI_	13	240	1	96	48	4
STR	13	336	0
SI_	13	336	0	96	48	5
STR	14	48	1
SI_	14	48	1	96	48	5
TAP	14	144	0
TAP	14	192	0
TAP	14	288	2
TAP	14	288	7
TAP	15	0	4
TAP	15	0	5
TAP	15	96	7
TAP	15	144	7
STR	15	240	0
SI_	15	240	0	96	48	3
STR	15	336	6
SI_	15	336	6	96	48	3
STR	16	48	7
SI_	16	48	7	96	48	3
TAP	16	144	6
TAP	16	192	6
TAP	16	288	0
TAP	16	288	4
TAP	17	0	2
TAP	17	0	3
TAP	17	96	1
TAP	17	144	1
STR	17	240	6
SXR	17	240	6	96	264	2
STR	17	240	7
SUR	17	240	7	96	264	2
TAP	19	0	6
TAP	19	48	6
TAP	19	96	4
TAP	19	144	5
TAP	19	240	0
TAP	19	288	0
STR	19	336	6
SCL	19	336	6	96	144	2
TAP	20	0	7
TAP	20	48	7
TAP	20	288	0
TAP	20	288	4
TAP	21	0	1
TAP	21	48	1
TAP	21	96	3
TAP	21	144	2
TAP	21	240	7
TAP	21	288	7
STR	21	336	1
SCR	21	336	1	96	144	5
TAP	22	0	0
TAP	22	48	0
TAP	22	288	3
TAP	22	288	7
TAP	23	0	2
HLD	23	96	2	96
HLD	23	192	3	96
HLD	23	288	4	96
HLD	24	0	5	96
BRK	24	96	6
BRK	24	192	5
BRK	24	192	7
BRK	24	288	0
BRK	24	288	4
BRK	24	336	0
BRK	24	336	4
TAP	25	48	2
TAP	25	96	3
TAP	25	192	1
TAP	25	192	4
TAP	25	288	5
TAP	25	336	5
TAP	26	0	4
TAP	26	96	3
TAP	26	96	6
TAP	26	144	3
TAP	26	144	6
BRK	26	240	7
BRK	26	288	7
HLD	27	0	1	96
BRK	27	0	2
BRK	27	96	3
BRK	27	192	3
HLD	27	192	4	96
TAP	27	288	2
TAP	28	0	1
TAP	28	96	0
TAP	28	96	2
TAP	28	192	1
TAP	28	288	0
TAP	28	288	2
TAP	29	0	0
HLD	29	0	1	96
TAP	29	96	7
HLD	29	192	6	96
TAP	29	192	7
TAP	29	288	0
TAP	30	0	2
TAP	30	0	3
TAP	30	48	2
TAP	30	48	3
HLD	30	144	1	96
HLD	30	144	4	96
BRK	30	288	1
BRK	30	288	4
TAP	31	0	5
HLD	31	0	6	96
TAP	31	96	4
HLD	31	192	3	96
TAP	31	192	4
TAP	31	288	5
BRK	32	0	6
BRK	32	48	6
BRK	32	96	0
BRK	32	144	0
TAP	32	240	6
TAP	32	288	7
HLD	33	0	6	96
TAP	33	0	7
TAP	33	96	0
TAP	33	192	0
HLD	33	192	1	96
TAP	33	288	7
TAP	34	0	4
TAP	34	0	5
STR	34	48	4
SCR	34	48	4	96	144	0
SUR	34	48	4	96	144	1
TAP	34	48	5
STR	35	0	1
SUR	35	0	1	96	120	5
TAP	35	144	7
STR	35	192	7
SI_	35	192	7	96	72	3
TAP	35	288	7
STR	36	0	1
SUR	36	0	1	96	120	5
TAP	36	144	7
STR	36	192	7
SI_	36	192	7	96	72	3
TAP	36	288	7
STR	37	0	1
SUR	37	0	1	96	120	5
TAP	37	144	7
STR	37	192	7
SI_	37	192	7	96	72	3
TAP	37	288	7
TAP	38	0	1
TAP	38	48	1
TAP	38	144	0
TAP	38	144	2
TAP	38	240	7
TAP	38	288	7
STR	39	0	3
SI_	39	0	3	96	192	0
TAP	39	96	7
TAP	39	192	6
TAP	39	288	5
STR	40	0	4
SI_	40	0	4	96	192	7
TAP	40	96	0
TAP	40	192	1
TAP	40	288	2
STR	41	0	3
SI_	41	0	3	96	96	1
TAP	41	96	5
STR	41	192	4
SI_	41	192	4	96	96	6
TAP	41	288	2
STR	42	0	3
SF_	42	0	3	96	144	7
STR	43	0	0
SLR	43	0	0	96	192	5
TAP	43	96	4
TAP	43	192	5
TAP	43	288	6
STR	44	0	7
SLL	44	0	7	96	192	2
TAP	44	96	3
TAP	44	192	2
TAP	44	288	1
BRK	45	0	0
BRK	45	48	0
BRK	45	96	7
BRK	45	144	7
TAP	45	192	1
TAP	45	240	6
TAP	45	288	2
TAP	45	336	5
TAP	46	0	3
TAP	46	0	4
STR	46	96	3
SI_	46	96	3	96	48	7
STR	46	96	4
SI_	46	96	4	96	48	0
TAP	46	192	3
TAP	46	192	4
STR	47	0	3
SI_	47	0	3	96	48	7
STR	47	0	6
SI_	47	0	6	96	48	3
STR	47	192	1
SI_	47	192	1	96	48	4
STR	47	192	4
SI_	47	192	4	96	48	0
TAP	48	0	6
TAP	48	48	7
TAP	48	144	1
STR	48	144	5
SI_	48	144	5	96	48	0
TAP	48	240	2
TAP	48	288	2
STR	49	0	1
SCR	49	0	1	96	48	4
STR	49	0	4
SUL	49	0	4	96	48	0
STR	49	192	3
SUR	49	192	3	96	48	7
STR	49	192	6
SCL	49	192	6	96	48	3
TAP	50	0	1
TAP	50	48	0
STR	50	144	2
SI_	50	144	2	96	48	7
TAP	50	144	6
TAP	50	240	5
TAP	50	288	5
STR	51	0	6
SCR	51	0	6	96	48	1
STR	51	96	2
SCR	51	96	2	96	48	5
STR	51	192	7
SI_	51	192	7	96	48	3
STR	52	0	1
SCL	52	0	1	96	48	6
STR	52	96	5
SCL	52	96	5	96	48	2
STR	52	192	0
SI_	52	192	0	96	48	4
STR	53	0	7
SCR	53	0	7	96	96	3
STR	53	96	3
SCR	53	96	3	96	96	7
STR	53	192	7
SCR	53	192	7	96	96	3
STR	53	288	3
SXL	53	288	3	96	96	5
SXR	53	288	3	96	96	1
BRK	54	192	3
BRK	54	192	7
STR	55	0	5
SI_	55	0	5	96	96	1
STR	55	96	1
SV_	55	96	1	96	96	3
SV_	55	96	1	96	96	7
TAP	56	0	6
TAP	56	96	1
TAP	56	96	5
TAP	56	144	1
TAP	56	144	5
STR	57	0	2
SI_	57	0	2	96	96	6
STR	57	96	6
SV_	57	96	6	96	96	0
SV_	57	96	6	96	96	4
TAP	58	0	1
STR	58	48	1
SV_	58	48	1	96	144	4
SV_	58	48	1	96	144	6
STR	59	0	2
SI_	59	0	2	96	48	7
TAP	59	0	7
TAP	59	96	6
TAP	59	192	0
STR	59	192	5
SI_	59	192	5	96	48	0
TAP	59	288	1
TAP	60	0	2
TAP	60	0	7
TAP	60	96	0
TAP	60	96	5
TAP	60	192	3
TAP	60	192	7
STR	60	240	3
SLL	60	240	3	96	144	7
STR	60	240	7
SLL	60	240	7	96	144	3
BRK	61	192	0
BRK	61	288	1
TAP	62	0	4
TAP	62	48	3
TAP	62	96	4
TAP	62	144	3
TAP	62	192	4
BRK	62	288	1
BRK	62	288	6
TAP	63	0	1
STR	63	48	1
SI_	63	48	1	96	48	4
STR	63	144	7
SI_	63	144	7	96	48	4
STR	63	240	0
SI_	63	240	0	96	48	3
STR	63	336	6
SI_	63	336	6	96	48	3
STR	64	48	7
SI_	64	48	7	96	48	2
TAP	64	144	6
TAP	64	192	6
TAP	64	288	0
TAP	64	288	4
TAP	65	0	6
STR	65	48	6
SI_	65	48	6	96	48	3
STR	65	144	0
SI_	65	144	0	96	48	3
STR	65	240	7
SI_	65	240	7	96	48	4
STR	65	336	1
SI_	65	336	1	96	48	4
STR	66	48	0
SI_	66	48	0	96	48	5
TAP	66	144	1
TAP	66	192	1
TAP	66	288	3
TAP	66	288	7
TAP	67	0	0
TAP	67	0	1
TAP	67	96	2
TAP	67	144	2
TAP	67	240	6
TAP	67	240	7
TAP	67	336	0
STR	67	336	5
SCL	67	336	5	96	48	2
TAP	68	144	1
TAP	68	192	1
TAP	68	288	3
TAP	68	288	7
TAP	69	0	4
TAP	69	0	5
TAP	69	96	3
TAP	69	96	6
TAP	69	144	3
TAP	69	144	6
STR	69	240	0
SUL	69	240	0	96	264	5
STR	69	240	1
SXL	69	240	1	96	264	5
TAP	71	0	6
TAP	71	48	6
TAP	71	96	4
TAP	71	144	5
TAP	71	240	7
TAP	71	288	7
STR	71	336	1
SCR	71	336	1	96	144	5
TAP	72	0	0
TAP	72	48	0
TAP	72	288	3
TAP	72	288	7
TAP	73	0	6
TAP	73	48	6
TAP	73	96	4
TAP	73	144	5
TAP	73	240	7
TAP	73	288	7
STR	73	336	1
SCR	73	336	1	96	144	5
TAP	74	0	0
TAP	74	48	0
TAP	74	288	3
TAP	74	288	7
TAP	75	0	5
HLD	75	96	5	96
HLD	75	192	4	96
HLD	75	288	3	96
HLD	76	0	2	96
BRK	76	96	1
BRK	76	192	0
BRK	76	192	2
BRK	76	288	3
BRK	76	288	7
BRK	76	336	3
BRK	76	336	7
TAP	77	48	5
TAP	77	96	4
TAP	77	192	3
TAP	77	192	6
TAP	77	288	2
TAP	77	336	2
TAP	78	0	3
TAP	78	96	1
TAP	78	96	4
TAP	78	144	1
TAP	78	144	4
BRK	78	240	0
BRK	78	288	0
TAP	79	0	0
STR	79	0	7
SCL	79	0	7	96	96	5
TAP	79	96	0
TAP	79	192	1
TAP	79	288	1
BRK	80	0	4
BRK	80	48	3
BRK	80	96	2
TAP	80	192	1
TAP	80	192	5
TAP	80	288	0
TAP	81	0	0
STR	81	0	7
SCL	81	0	7	96	96	5
TAP	81	96	0
TAP	81	192	1
TAP	81	288	2
BRK	82	0	4
BRK	82	48	3
BRK	82	96	2
TAP	82	192	1
TAP	82	192	5
TAP	82	288	0
TAP	82	288	7
TAP	83	0	0
STR	83	0	7
SCL	83	0	7	96	96	5
TAP	83	96	1
TAP	83	192	2
TAP	83	288	3
BRK	84	0	4
BRK	84	48	3
BRK	84	96	2
TAP	84	192	1
TAP	84	192	5
TAP	84	288	0
TAP	84	288	7
BRK	85	0	2
BRK	85	96	1
BRK	85	96	3
BRK	85	192	0
BRK	85	240	7
TAP	85	336	4
TAP	85	336	6
TAP	86	48	7
TAP	86	96	0
TAP	86	192	6
TAP	86	192	7
TAP	86	240	6
TAP	86	240	7
TAP	86	336	0
TAP	86	336	5
TAP	87	48	2
TAP	87	48	3
TAP	87	144	1
TAP	87	144	5
STR	87	192	1
SI_	87	192	1	96	48	4
STR	87	192	5
SI_	87	192	5	96	48	0
BRK	88	0	2
BRK	88	0	6

T_REC_TAP	270
T_REC_BRK	56
T_REC_XTP	0
T_REC_HLD	18
T_REC_XHO	0
T_REC_STR	87
T_REC_BST	0
T_REC_XST	0
T_REC_TTP	0
T_REC_THO	0
T_REC_SLD	92
T_REC_ALL	523
T_NUM_TAP	357
T_NUM_BRK	56
T_NUM_HLD	18
T_NUM_SLD	92
T_NUM_ALL	523
T_JUDGE_TAP	413
T_JUDGE_HLD	36
T_JUDGE_SLD	92
T_JUDGE_ALL	541
TTM_EACHPAIRS	94
TTM_SCR_TAP	178500
TTM_SCR_BRK	145600
TTM_SCR_HLD	18000
TTM_SCR_SLD	138000
TTM_SCR_ALL	480100
TTM_SCR_S	460300
TTM_SCR_SS	474500
TTM_RAT_ACV	10118

