VERSION	0.00.00	1.03.00
FES_MODE	0
BPM_DEF	238.000	238.000	238.000	238.000
MET_DEF	4	4
RESOLUTION	384
CLK_DEF	384
COMPATIBLE_CODE	MA2

BPM	0	0	238.000

TAP	2	0	4
TAP	2	0	5
TAP	2	192	3
TAP	2	192	4
TAP	3	0	2
TAP	3	48	3
TAP	3	96	2
TAP	3	192	1
TAP	3	192	4
TAP	4	0	4
TAP	4	0	5
TAP	4	192	3
TAP	4	192	4
TAP	5	0	2
TAP	5	48	3
TAP	5	96	2
TAP	5	192	0
TAP	5	192	1
TAP	6	0	4
TAP	6	0	5
TAP	6	192	3
TAP	6	192	4
TAP	7	0	2
TAP	7	48	3
TAP	7	96	2
BRK	7	192	0
BRK	7	192	7
TAP	8	0	3
TAP	8	96	2
TAP	8	192	1
TAP	8	240	1
TAP	8	336	0
TAP	8	336	7
TAP	9	48	6
TAP	9	96	6
TAP	9	192	5
STR	9	288	3
SXR	9	288	3	96	192	1
STR	9	288	4
SXL	9	288	4	96	192	6
TAP	11	0	1
TAP	11	48	1
TAP	11	144	0
TAP	11	144	1
TAP	11	240	0
TAP	11	240	1
TAP	11	336	0
TAP	11	336	7
TAP	12	48	0
TAP	12	48	7
TAP	12	144	0
TAP	12	144	1
TAP	12	192	0
TAP	12	192	1
BRK	12	288	2
BRK	12	288	7
TAP	13	0	6
TAP	13	48	6
TAP	13	144	6
TAP	13	144	7
TAP	13	240	6
TAP	13	240	7
TAP	13	336	0
TAP	13	336	7
TAP	14	48	0
TAP	14	48	7
TAP	14	144	6
TAP	14	144	7
TAP	14	192	6
TAP	14	192	7
BRK	14	288	0
BRK	14	288	5
HLD	15	0	2	96
TAP	15	96	3
TAP	15	144	3
TAP	15	240	1
TAP	15	240	4
HLD	15	336	5	96
TAP	16	48	4
TAP	16	144	3
TAP	16	144	6
TAP	16	192	3
TAP	16	192	6
STR	17	0	1
SI_	17	0	1	96	96	4
STR	17	192	6
SI_	17	192	6	96	96	3
STR	18	0	0
SI_	18	0	0	96	96	4
TAP	18	192	5
TAP	19	0	4
TAP	19	0	6
HLD	19	48	4	96
HLD	19	48	6	96
TAP	19	288	5
TAP	19	288	7
TAP	20	0	5
TAP	20	0	7
HLD	20	48	5	144
HLD	20	48	7	144
TAP	21	0	1
TAP	21	0	3
HLD	21	48	1	96
HLD	21	48	3	96
TAP	21	288	0
TAP	21	288	2
TAP	22	0	0
TAP	22	0	2
HLD	22	48	0	336
HLD	22	48	2	336
TAP	23	96	5
TAP	23	192	4
TAP	23	288	3
TAP	24	0	2
BRK	24	96	1
BRK	24	192	0
BRK	24	288	7
BRK	24	336	7
TAP	25	48	6
STR	25	96	6
SI_	25	96	6	96	96	2
TAP	25	336	1
STR	26	0	1
SI_	26	0	1	96	96	5
BRK	26	240	7
BRK	26	288	7
TAP	27	0	2
TAP	27	96	2
TAP	27	192	3
TAP	27	288	3
HLD	28	0	2	96
HLD	28	96	3	96
HLD	28	192	4	96
TAP	28	288	5
TAP	29	0	5
TAP	29	96	5
TAP	29	192	4
TAP	29	288	4
STR	30	0	5
SCL	30	0	5	96	96	2
TAP	31	0	5
TAP	31	96	5
TAP	31	192	4
TAP	31	288	4
HLD	32	0	5	96
HLD	32	96	4	96
HLD	32	192	3	96
TAP	32	288	2
TAP	33	0	2
TAP	33	96	2
TAP	33	192	3
TAP	33	288	3
STR	34	0	2
SUL	34	0	2	96	192	4
HLD	35	0	5	144
TAP	35	144	4
TAP	35	192	4
TAP	35	288	3
TAP	35	288	5
HLD	36	0	2	144
TAP	36	144	3
TAP	36	192	3
TAP	36	288	2
TAP	36	288	4
HLD	37	0	5	144
TAP	37	144	4
TAP	37	192	4
TAP	37	288	3
TAP	37	288	6
HLD	38	0	2	144
TAP	38	144	3
TAP	38	192	3
TAP	38	288	1
TAP	38	288	4
HLD	39	0	5	384
TAP	39	192	4
TAP	39	288	3
HLD	40	0	2	384
TAP	40	192	3
TAP	40	288	4
HLD	41	0	6	384
TAP	41	192	4
TAP	41	288	3
HLD	42	0	1	384
TAP	42	192	3
TAP	42	288	4
TAP	43	0	5
TAP	43	96	5
TAP	43	192	4
TAP	43	288	4
TAP	44	0	3
TAP	44	96	3
TAP	44	192	2
TAP	44	288	2
STR	45	0	2
SXL	45	0	2	96	384	1
TAP	45	0	5
BRK	46	192	0
BRK	46	192	7
BRK	46	288	0
BRK	46	288	7
TAP	47	0	6
TAP	47	0	7
TAP	47	96	6
TAP	47	96	7
TAP	47	192	4
TAP	47	192	5
TAP	47	288	4
TAP	47	288	5
HLD	48	0	3	96
HLD	48	96	2	96
HLD	48	192	1	96
TAP	48	288	0
TAP	49	0	2
TAP	49	0	3
TAP	49	96	2
TAP	49	96	3
TAP	49	192	0
TAP	49	192	1
STR	49	288	0
SSL	49	288	0	96	288	4
TAP	49	288	1
TAP	51	0	2
TAP	51	96	1
TAP	51	96	3
TAP	51	192	5
TAP	51	288	4
TAP	51	288	6
TAP	52	0	1
TAP	52	96	0
TAP	52	96	2
TAP	52	192	6
TAP	52	288	5
TAP	52	288	7
TAP	53	0	2
TAP	53	0	3
TAP	53	96	0
TAP	53	96	1
TAP	53	144	0
TAP	53	144	1
STR	53	288	3
SLL	53	288	3	96	240	4
STR	53	288	7
SLL	53	288	7	96	240	0
TAP	55	0	2
TAP	55	0	6
HLD	55	48	2	240
HLD	55	48	6	240
STR	56	0	2
SI_	56	0	2	96	96	4
STR	56	0	6
SI_	56	0	6	96	96	4
TAP	57	0	1
TAP	57	0	5
HLD	57	48	1	240
HLD	57	48	5	240
STR	58	0	1
SI_	58	0	1	96	96	3
STR	58	0	5
SI_	58	0	5	96	96	3
TAP	59	0	2
TAP	59	96	2
TAP	59	192	1
TAP	59	192	3
TAP	59	288	2
TAP	60	0	5
TAP	60	96	5
TAP	60	192	4
TAP	60	192	6
TAP	60	288	0
TAP	60	288	7
HLD	60	336	0	144
HLD	60	336	7	144
BRK	61	192	0
BRK	61	288	1
TAP	62	0	0
TAP	62	48	7
TAP	62	96	0
HLD	62	144	7	144
TAP	62	288	0
TAP	63	0	6
TAP	63	48	6
TAP	63	144	6
TAP	63	144	7
TAP	63	240	0
TAP	63	240	7
TAP	63	336	6
TAP	63	336	7
TAP	64	48	0
TAP	64	48	7
TAP	64	144	6
TAP	64	144	7
TAP	64	192	6
TAP	64	192	7
BRK	64	288	0
BRK	64	288	5
TAP	65	0	1
TAP	65	48	1
TAP	65	144	0
TAP	65	144	1
TAP	65	240	0
TAP	65	240	7
TAP	65	336	0
TAP	65	336	1
TAP	66	48	0
TAP	66	48	7
TAP	66	144	0
TAP	66	144	1
TAP	66	192	0
TAP	66	192	1
BRK	66	288	2
BRK	66	288	7
HLD	67	0	5	96
TAP	67	96	4
TAP	67	144	4
TAP	67	240	3
TAP	67	240	6
HLD	67	336	2	96
TAP	68	48	3
TAP	68	144	1
TAP	68	144	4
TAP	68	192	1
TAP	68	192	4
STR	69	0	6
SI_	69	0	6	96	96	3
STR	69	192	1
SI_	69	192	1	96	96	4
STR	70	0	7
SI_	70	0	7	96	96	3
TAP	70	192	2
TAP	71	0	1
TAP	71	0	3
HLD	71	48	1	96
HLD	71	48	3	96
TAP	71	288	0
TAP	71	288	2
TAP	72	0	0
TAP	72	0	2
HLD	72	48	0	240
HLD	72	48	2	240
TAP	73	0	4
TAP	73	0	6
HLD	73	48	4	96
HLD	73	48	6	96
TAP	73	288	5
TAP	73	288	7
TAP	74	0	5
TAP	74	0	7
HLD	74	48	5	336
HLD	74	48	7	336
TAP	75	96	2
TAP	75	192	3
TAP	75	288	4
TAP	76	0	5
BRK	76	96	6
BRK	76	192	7
BRK	76	288	0
BRK	76	336	0
TAP	77	48	1
STR	77	96	1
SI_	77	96	1	96	96	5
TAP	77	336	6
STR	78	0	6
SI_	78	0	6	96	96	2
BRK	78	240	0
BRK	78	288	0
STR	79	0	7
SI_	79	0	7	96	96	5
TAP	80	0	5
TAP	80	48	4
TAP	80	96	3
BRK	80	192	2
BRK	80	192	6
STR	81	0	7
SI_	81	0	7	96	96	5
TAP	82	0	5
TAP	82	48	4
TAP	82	96	3
BRK	82	192	0
BRK	82	192	1
STR	83	0	7
SI_	83	0	7	96	96	5
TAP	84	0	5
TAP	84	48	4
TAP	84	96	3
BRK	84	192	0
BRK	84	192	7
TAP	85	0	4
TAP	85	96	5
TAP	85	192	6
TAP	85	240	6
TAP	85	336	0
TAP	85	336	7
TAP	86	48	1
TAP	86	96	1
TAP	86	192	2
STR	86	288	3
SXR	86	288	3	96	192	1
STR	86	288	4
SXL	86	288	4	96	192	6
TAP	87	288	0
TAP	87	288	7
BRK	88	0	1
BRK	88	0	6

T_REC_TAP	270
T_REC_BRK	36
T_REC_XTP	0
T_REC_HLD	44
T_REC_XHO	0
T_REC_STR	27
T_REC_BST	0
T_REC_XST	0
T_REC_TTP	0
T_REC_THO	0
T_REC_SLD	27
T_REC_ALL	404
T_NUM_TAP	297
T_NUM_BRK	36
T_NUM_HLD	44
T_NUM_SLD	27
T_NUM_ALL	404
T_JUDGE_TAP	333
T_JUDGE_HLD	159
T_JUDGE_SLD	27
T_JUDGE_ALL	519
TTM_EACHPAIRS	105
TTM_SCR_TAP	148500
TTM_SCR_BRK	93600
TTM_SCR_HLD	44000
TTM_SCR_SLD	40500
TTM_SCR_ALL	326600
TTM_SCR_S	313350
TTM_SCR_SS	323000
TTM_RAT_ACV	10111

