VERSION	0.00.00	1.03.00
FES_MODE	0
BPM_DEF	238.000	238.000	238.000	238.000
MET_DEF	4	4
RESOLUTION	384
CLK_DEF	384
COMPATIBLE_CODE	MA2

BPM	0	0	238.000
MET	0	0	4	4

HLD	2	0	4	192
TAP	3	0	4
TAP	3	96	4
TAP	3	192	4
HLD	4	0	3	192
TAP	5	0	3
TAP	5	96	3
TAP	5	192	3
HLD	6	0	4	192
TAP	7	0	4
TAP	7	96	4
TAP	7	192	4
TAP	8	0	3
TAP	8	96	3
TAP	8	192	2
TAP	8	288	2
TAP	9	0	1
TAP	9	96	1
TAP	9	192	0
TAP	9	288	0
TAP	10	0	7
TAP	10	96	7
TAP	10	192	1
TAP	10	192	6
TAP	11	0	0
TAP	11	96	0
TAP	11	192	1
TAP	11	288	1
TAP	12	0	2
TAP	12	96	2
TAP	12	192	1
TAP	12	192	3
TAP	13	0	4
TAP	13	96	4
TAP	13	192	5
TAP	13	288	5
TAP	14	0	6
TAP	14	96	6
TAP	14	192	0
TAP	14	192	7
TAP	15	0	7
TAP	15	96	7
TAP	15	192	6
TAP	15	288	6
TAP	16	0	5
TAP	16	96	5
TAP	16	192	4
TAP	16	192	6
TAP	17	0	3
TAP	17	96	3
TAP	17	192	2
TAP	17	288	2
TAP	18	0	1
TAP	18	96	1
TAP	18	192	1
TAP	18	192	6
HLD	19	0	2	384
TAP	20	0	3
TAP	20	192	4
HLD	21	0	5	384
TAP	22	0	4
TAP	22	192	3
TAP	23	0	4
TAP	23	96	4
TAP	23	192	3
TAP	23	288	3
TAP	24	0	2
TAP	24	96	2
TAP	24	192	1
TAP	24	288	1
TAP	25	0	0
TAP	25	96	0
TAP	25	192	0
TAP	26	0	1
TAP	26	0	6
TAP	26	96	1
TAP	26	96	6
TAP	26	192	1
TAP	26	192	6
TAP	27	0	5
TAP	27	96	5
TAP	27	192	4
TAP	28	0	2
TAP	28	96	2
TAP	28	192	3
TAP	29	0	5
TAP	29	96	5
TAP	29	192	4
TAP	29	288	4
TAP	30	0	3
TAP	30	96	3
TAP	30	192	3
TAP	30	192	4
TAP	31	0	2
TAP	31	96	2
TAP	31	192	3
TAP	32	0	5
TAP	32	96	5
TAP	32	192	4
TAP	33	0	2
TAP	33	96	2
TAP	33	192	3
TAP	33	288	3
TAP	34	0	4
TAP	34	96	4
TAP	34	192	3
TAP	34	192	4
STR	35	0	5
SI_	35	0	5	96	288	2
STR	37	0	1
SI_	37	0	1	96	288	6
HLD	39	0	6	384
HLD	40	0	7	384
HLD	41	0	0	384
TAP	42	0	1
TAP	43	0	3
TAP	43	96	3
TAP	43	192	3
TAP	44	0	4
TAP	44	96	4
TAP	44	192	4
TAP	45	0	3
TAP	45	0	4
TAP	45	96	3
TAP	45	96	4
STR	45	192	3
SCL	45	192	3	96	288	0
STR	45	192	4
SCR	45	192	4	96	288	7
TAP	47	0	0
TAP	47	96	0
TAP	47	192	1
TAP	47	288	1
TAP	48	0	2
TAP	48	96	2
TAP	48	192	3
TAP	48	288	3
TAP	49	0	4
TAP	49	96	4
TAP	49	192	5
TAP	49	288	5
TAP	50	0	4
TAP	50	0	6
TAP	50	96	4
TAP	50	96	6
TAP	50	192	4
TAP	50	192	6
TAP	51	0	7
TAP	51	96	7
TAP	51	192	6
TAP	51	288	6
TAP	52	0	5
TAP	52	96	5
TAP	52	192	4
TAP	52	288	4
TAP	53	0	3
TAP	53	96	3
TAP	53	192	2
TAP	53	288	2
TAP	54	0	1
TAP	54	0	3
TAP	54	96	1
TAP	54	96	3
TAP	54	192	1
TAP	54	192	3
STR	55	0	0
SCR	55	0	0	96	288	3
TAP	56	192	3
TAP	56	192	4
STR	57	0	4
SCR	57	0	4	96	288	7
TAP	58	192	1
TAP	58	192	6
TAP	59	0	2
TAP	59	96	2
TAP	59	192	2
TAP	59	192	3
TAP	60	0	5
TAP	60	96	5
TAP	60	192	4
TAP	60	192	5
TAP	61	0	1
TAP	61	0	6
TAP	61	96	1
TAP	61	96	6
TAP	61	192	1
TAP	61	192	6
BRK	62	0	0
BRK	62	0	7
BRK	62	96	0
BRK	62	96	7
TAP	63	0	7
TAP	63	96	7
TAP	63	192	6
TAP	63	288	6
TAP	64	0	5
TAP	64	96	5
TAP	64	192	3
TAP	64	192	6
TAP	65	0	3
TAP	65	96	3
TAP	65	192	2
TAP	65	288	2
TAP	66	0	1
TAP	66	96	1
TAP	66	192	0
TAP	66	192	7
TAP	67	0	0
TAP	67	96	0
TAP	67	192	1
TAP	67	288	1
TAP	68	0	2
TAP	68	96	2
TAP	68	192	1
TAP	68	192	4
TAP	69	0	4
TAP	69	96	4
TAP	69	192	5
TAP	69	288	5
TAP	70	0	6
TAP	70	96	6
TAP	70	192	0
TAP	70	192	7
HLD	71	0	6	384
TAP	72	0	7
TAP	72	192	0
HLD	73	0	1	384
TAP	74	0	0
TAP	74	192	7
TAP	75	0	0
TAP	75	96	7
TAP	75	192	6
TAP	75	288	5
TAP	76	0	4
TAP	76	96	3
TAP	76	192	2
TAP	76	288	1
TAP	77	0	0
TAP	77	96	0
TAP	77	192	0
TAP	78	0	1
TAP	78	0	6
TAP	78	96	1
TAP	78	96	6
TAP	78	192	1
TAP	78	192	6
HLD	79	0	2	192
TAP	79	192	3
TAP	80	0	2
TAP	80	0	3
TAP	80	96	2
TAP	80	96	3
TAP	80	192	1
TAP	80	192	4
HLD	81	0	5	192
TAP	81	192	4
TAP	82	0	4
TAP	82	0	5
TAP	82	96	4
TAP	82	96	5
TAP	82	192	3
TAP	82	192	6
HLD	83	0	2	192
TAP	83	192	3
TAP	84	0	2
TAP	84	0	3
TAP	84	96	2
TAP	84	96	3
TAP	84	192	1
TAP	84	192	4
TAP	85	0	3
TAP	85	96	2
TAP	85	192	1
TAP	85	288	0
TAP	86	0	7
TAP	86	96	6
TAP	86	192	5
TAP	86	288	4
TAP	87	0	3
TAP	87	96	2
TAP	87	192	1
BRK	87	288	0
BRK	87	288	7
BRK	88	0	0
BRK	88	0	7

T_REC_TAP	252
T_REC_BRK	8
T_REC_XTP	0
T_REC_HLD	13
T_REC_XHO	0
T_REC_STR	6
T_REC_BST	0
T_REC_XST	0
T_REC_TTP	0
T_REC_THO	0
T_REC_SLD	6
T_REC_ALL	285
T_NUM_TAP	258
T_NUM_BRK	8
T_NUM_HLD	13
T_NUM_SLD	6
T_NUM_ALL	285
T_JUDGE_TAP	266
T_JUDGE_HLD	80
T_JUDGE_SLD	6
T_JUDGE_ALL	352
TTM_EACHPAIRS	46
TTM_SCR_TAP	129000
TTM_SCR_BRK	20800
TTM_SCR_HLD	13000
TTM_SCR_SLD	9000
TTM_SCR_ALL	171800
TTM_SCR_S	165900
TTM_SCR_SS	171000
TTM_RAT_ACV	10046

