VERSION	0.00.00	1.03.00
FES_MODE	0
BPM_DEF	238.000	238.000	238.000	238.000
MET_DEF	4	4
RESOLUTION	384
CLK_DEF	384
COMPATIBLE_CODE	MA2

BPM	0	0	238.000

HLD	2	0	0	384
HLD	4	0	7	384
TAP	6	0	0
TAP	6	192	0
TAP	7	0	0
TAP	8	0	7
TAP	8	192	7
TAP	9	0	0
TAP	9	192	0
TAP	10	0	0
TAP	10	0	7
BRK	10	192	0
BRK	10	192	7
TAP	11	0	0
TAP	11	192	0
TAP	12	0	0
TAP	13	0	1
TAP	13	192	1
TAP	14	0	1
TAP	15	0	2
TAP	15	192	2
TAP	16	0	3
TAP	16	192	3
TAP	17	0	4
TAP	17	192	4
TAP	18	0	2
TAP	18	0	5
HLD	19	0	4	384
HLD	19	0	5	384
HLD	21	0	2	384
HLD	21	0	3	384
TAP	23	0	4
TAP	23	192	4
TAP	24	0	5
TAP	24	192	5
TAP	25	0	6
TAP	25	192	6
TAP	26	0	0
TAP	26	0	7
TAP	27	0	7
TAP	27	192	7
TAP	28	0	6
TAP	28	0	7
TAP	29	0	5
TAP	29	192	5
TAP	30	0	4
TAP	30	0	5
TAP	31	0	2
TAP	31	192	2
TAP	32	0	2
TAP	32	0	3
TAP	33	0	1
TAP	33	192	1
TAP	34	0	0
TAP	34	0	1
STR	35	0	7
SI_	35	0	7	96	288	4
STR	37	0	0
SI_	37	0	0	96	288	3
STR	39	0	7
SI_	39	0	7	96	288	4
STR	41	0	0
SI_	41	0	0	96	288	3
HLD	43	0	3	192
HLD	43	0	4	192
HLD	44	0	2	192
HLD	44	0	5	192
TAP	45	0	1
TAP	45	0	6
TAP	45	192	1
TAP	45	192	6
BRK	46	0	0
BRK	46	0	7
HLD	47	0	7	192
TAP	48	0	7
TAP	48	192	7
HLD	49	0	6	192
TAP	50	0	6
TAP	50	192	6
TAP	51	0	5
TAP	51	192	5
TAP	52	0	4
TAP	52	192	4
TAP	53	0	3
TAP	53	0	4
TAP	53	192	3
TAP	53	192	4
TAP	54	0	2
TAP	54	0	5
HLD	55	0	2	384
HLD	55	0	4	384
HLD	57	0	3	384
HLD	57	0	5	384
TAP	59	0	3
TAP	59	192	3
TAP	60	0	2
TAP	60	192	2
HLD	61	0	0	384
HLD	61	0	1	384
TAP	63	0	0
TAP	63	192	0
TAP	64	0	0
TAP	65	0	1
TAP	65	192	1
TAP	66	0	1
TAP	67	0	2
TAP	67	192	2
TAP	68	0	3
TAP	68	192	3
TAP	69	0	3
TAP	69	0	4
TAP	69	192	3
TAP	69	192	4
TAP	70	0	2
TAP	70	0	5
HLD	71	0	4	384
HLD	71	0	6	384
HLD	73	0	1	384
HLD	73	0	3	384
TAP	75	0	4
TAP	75	192	4
TAP	76	0	5
TAP	76	192	5
TAP	77	0	6
TAP	77	192	6
BRK	78	0	0
BRK	78	0	7
TAP	79	0	0
TAP	79	0	1
TAP	79	192	0
TAP	79	192	1
TAP	80	0	7
TAP	80	96	7
TAP	80	192	7
TAP	81	0	6
TAP	81	0	7
TAP	81	192	6
TAP	81	192	7
TAP	82	0	0
TAP	82	96	0
TAP	82	192	0
TAP	83	0	0
TAP	83	0	7
TAP	83	192	0
TAP	83	192	7
TAP	84	0	0
TAP	84	96	7
TAP	84	192	0
TAP	85	0	0
TAP	85	192	0
TAP	86	0	7
TAP	86	192	7
TAP	87	0	0
TAP	87	0	7
TAP	87	192	0
TAP	87	192	7
BRK	88	0	1
BRK	88	0	6

T_REC_TAP	120
T_REC_BRK	8
T_REC_XTP	0
T_REC_HLD	22
T_REC_XHO	0
T_REC_STR	4
T_REC_BST	0
T_REC_XST	0
T_REC_TTP	0
T_REC_THO	0
T_REC_SLD	4
T_REC_ALL	158
T_NUM_TAP	124
T_NUM_BRK	8
T_NUM_HLD	22
T_NUM_SLD	4
T_NUM_ALL	158
T_JUDGE_TAP	132
T_JUDGE_HLD	152
T_JUDGE_SLD	4
T_JUDGE_ALL	288
TTM_EACHPAIRS	36
TTM_SCR_TAP	62000
TTM_SCR_BRK	20800
TTM_SCR_HLD	22000
TTM_SCR_SLD	6000
TTM_SCR_ALL	110800
TTM_SCR_S	106700
TTM_SCR_SS	110000
TTM_RAT_ACV	10072

