VERSION	0.00.00	1.03.00
FES_MODE	0
BPM_DEF	127.000	127.000	127.000	127.000
MET_DEF	4	4
RESOLUTION	384
CLK_DEF	384
COMPATIBLE_CODE	MA2

BPM	0	0	127.000
MET	0	0	4	4

STR	1	0	2
SCL	1	0	2	96	96	5
TAP	1	288	1
TAP	1	288	6
TAP	2	0	2
TAP	2	48	5
TAP	2	72	4
TAP	2	96	5
TAP	2	144	2
TAP	2	168	3
TAP	2	192	2
TAP	2	240	4
TAP	2	240	5
TAP	2	336	2
TAP	2	336	3
BRK	3	48	0
BRK	3	144	7
TAP	3	240	2
TAP	3	288	3
TAP	3	336	4
TAP	4	0	5
TAP	4	48	2
TAP	4	72	3
BRK	4	96	2
TAP	4	144	5
TAP	4	168	4
BRK	4	192	5
TAP	4	240	2
TAP	4	240	3
BRK	4	336	4
BRK	4	336	5
TAP	5	0	2
TAP	5	48	0
TAP	5	96	7
TAP	5	144	5
TAP	5	192	5
TAP	5	240	7
TAP	5	288	0
TAP	5	336	2
TAP	6	0	1
TAP	6	48	6
TAP	6	72	4
TAP	6	96	6
TAP	6	144	1
TAP	6	168	3
TAP	6	192	1
TAP	6	240	4
TAP	6	240	6
TAP	6	336	1
TAP	6	336	3
BRK	7	48	0
BRK	7	144	7
TAP	7	240	3
TAP	7	288	4
TAP	7	336	5
STR	8	0	6
SI_	8	0	6	96	48	3
BST	8	96	1
SI_	8	96	1	96	48	4
BRK	8	192	6
TAP	8	288	7
TAP	8	312	3
TAP	8	336	6
TAP	8	360	2
TAP	9	0	5
TAP	9	24	1
TAP	9	48	4
TAP	9	72	0
TAP	9	96	5
TAP	9	120	1
TAP	9	144	6
TAP	9	168	2
BST	9	192	7
SI_	9	192	7	96	48	3
TAP	9	288	2
TAP	10	0	4
TAP	10	0	5
TAP	10	48	6
TAP	10	96	3
TAP	10	96	4
TAP	10	144	2
TAP	10	168	3
TAP	10	192	1
TAP	10	240	5
STR	10	288	6
SI_	10	288	6	96	48	3
TAP	10	336	2
STR	11	0	1
SI_	11	0	1	96	48	4
STR	11	96	6
SCR	11	96	6	96	96	3
TAP	11	192	3
TAP	12	0	2
TAP	12	0	3
TAP	12	48	1
TAP	12	96	3
TAP	12	96	4
TAP	12	144	5
TAP	12	168	4
TAP	12	192	6
TAP	12	240	2
STR	12	288	1
SI_	12	288	1	96	48	4
TAP	12	336	4
STR	13	0	6
SI_	13	0	6	96	48	3
STR	13	96	1
SCL	13	96	1	96	96	4
TAP	13	192	4
HLD	14	0	3	96
TAP	14	48	2
HLD	14	96	4	96
TAP	14	144	5
STR	14	192	3
SCL	14	192	3	96	48	0
HLD	15	0	4	96
TAP	15	48	5
HLD	15	96	3	96
TAP	15	144	2
STR	15	192	4
SCR	15	192	4	96	48	7
HLD	16	0	1	96
TAP	16	48	3
HLD	16	96	6	96
TAP	16	144	4
HLD	16	192	2	96
TAP	16	240	3
HLD	16	288	5	96
TAP	16	336	4
STR	17	0	3
SI_	17	0	3	96	48	7
STR	17	96	0
SF_	17	96	0	96	48	4
TAP	17	192	0
TAP	17	288	1
TAP	17	288	6
STR	18	0	0
SI_	18	0	0	96	48	4
TAP	18	0	1
TAP	18	192	2
TAP	18	192	3
TAP	18	240	4
TAP	18	288	4
TAP	18	288	5
TAP	18	336	6
TAP	19	0	6
STR	19	0	7
SI_	19	0	7	96	48	3
TAP	19	192	4
TAP	19	192	5
TAP	19	240	3
TAP	19	288	2
TAP	19	288	3
TAP	19	336	1
STR	20	0	0
SI_	20	0	0	96	48	4
TAP	20	0	1
STR	20	96	1
SI_	20	96	1	96	48	5
TAP	20	192	6
STR	20	240	6
SCL	20	240	6	96	48	3
STR	20	336	7
SI_	20	336	7	96	48	3
STR	21	48	6
SI_	21	48	6	96	48	2
STR	21	144	1
SCR	21	144	1	96	48	4
TAP	21	240	5
TAP	21	336	6
TAP	22	0	6
STR	22	0	7
SI_	22	0	7	96	48	3
TAP	22	192	4
TAP	22	192	5
TAP	22	240	3
TAP	22	288	2
TAP	22	288	3
TAP	22	336	1
STR	23	0	0
SI_	23	0	0	96	48	4
TAP	23	0	1
TAP	23	192	2
TAP	23	192	3
TAP	23	240	4
TAP	23	288	4
TAP	23	288	5
TAP	23	336	6
TAP	24	0	6
STR	24	0	7
SI_	24	0	7	96	48	3
STR	24	96	6
SI_	24	96	6	96	48	2
TAP	24	192	1
STR	24	240	1
SCR	24	240	1	96	48	4
STR	24	336	5
SI_	24	336	5	96	48	1
STR	25	48	3
SF_	25	48	3	96	48	7
TAP	25	144	3
TAP	25	240	1
TAP	25	240	5
TAP	25	288	1
TAP	25	288	5
TAP	26	0	1
TAP	26	0	6
TAP	26	48	2
TAP	26	48	3
TAP	26	96	1
TAP	26	96	6
TAP	26	144	4
TAP	26	144	5
STR	26	192	2
SCL	26	192	2	96	48	6
TAP	26	192	3
TAP	26	240	4
TAP	26	264	4
TAP	26	312	5
TAP	26	336	5
TAP	27	0	3
TAP	27	0	5
TAP	27	48	2
TAP	27	48	4
STR	27	72	2
SI_	27	72	2	96	48	6
TAP	27	72	4
TAP	27	120	1
TAP	27	120	3
TAP	27	168	0
TAP	27	168	2
TAP	27	240	7
TAP	27	288	0
TAP	27	288	5
TAP	27	336	1
TAP	27	336	4
TAP	28	0	2
TAP	28	0	3
TAP	28	48	4
TAP	28	48	5
TAP	28	96	1
TAP	28	120	0
TAP	28	168	6
STR	28	192	7
SCR	28	192	7	96	48	2
TAP	28	240	5
TAP	28	288	4
TAP	28	336	3
TAP	29	0	2
TAP	29	0	4
TAP	29	48	3
TAP	29	48	5
TAP	29	72	3
STR	29	72	5
SI_	29	72	5	96	48	1
TAP	29	120	4
TAP	29	120	6
TAP	29	168	5
TAP	29	168	7
TAP	29	240	0
TAP	29	288	2
TAP	29	288	7
TAP	30	0	3
TAP	30	48	6
TAP	30	48	7
TAP	30	96	4
TAP	30	144	0
TAP	30	144	1
STR	30	192	3
SCL	30	192	3	96	48	0
TAP	30	216	3
TAP	30	264	7
TAP	30	288	7
TAP	30	336	6
TAP	31	0	3
TAP	31	0	5
TAP	31	48	2
TAP	31	48	4
STR	31	72	2
SI_	31	72	2	96	48	6
TAP	31	72	4
TAP	31	120	1
TAP	31	120	3
TAP	31	168	0
TAP	31	168	2
TAP	31	240	7
STR	31	288	0
SCR	31	288	0	96	48	3
STR	31	288	5
SCR	31	288	5	96	48	0
BRK	32	0	0
BRK	32	0	5
TAP	32	120	0
TAP	32	120	7
TAP	32	144	0
TAP	32	144	7
TAP	32	192	1
STR	32	192	6
SI_	32	192	6	96	24	3
STR	32	264	0
SI_	32	264	0	96	24	4
TAP	32	264	6
TAP	32	336	0
HLD	33	0	5	96
TAP	33	48	2
TAP	33	64	1
TAP	33	80	0
STR	33	96	7
SF_	33	96	7	96	48	3
TAP	33	192	7
BRK	33	288	1
BRK	33	288	6
TAP	34	0	5
TAP	34	24	4
TAP	34	48	6
TAP	34	72	3
STR	34	96	7
SI_	34	96	7	96	48	3
TAP	34	192	2
TAP	34	240	1
TAP	34	288	0
TAP	34	312	6
TAP	34	336	1
TAP	34	360	5
TAP	35	0	2
TAP	35	24	4
TAP	35	48	2
TAP	35	72	5
TAP	35	96	2
TAP	35	120	6
TAP	35	144	2
TAP	35	168	7
TAP	35	192	2
TAP	35	216	0
TAP	35	240	2
TAP	35	264	7
TAP	35	288	2
TAP	35	312	6
TAP	35	336	2
TAP	35	360	5
HLD	36	0	1	72
TAP	36	48	3
HLD	36	72	3	72
TAP	36	120	5
HLD	36	144	5	72
TAP	36	192	7
HLD	36	216	7	72
TAP	36	264	0
TAP	36	288	0
TAP	36	336	1
TAP	36	336	3
HLD	37	0	6	72
TAP	37	48	4
HLD	37	72	4	72
TAP	37	120	2
HLD	37	144	2	72
TAP	37	192	0
HLD	37	216	0	72
TAP	37	264	7
TAP	37	288	7
TAP	37	336	4
TAP	37	336	6
TAP	38	0	4
TAP	38	24	6
TAP	38	48	3
TAP	38	72	7
TAP	38	96	2
TAP	38	120	0
TAP	38	144	1
TAP	38	168	1
TAP	38	192	3
TAP	38	216	1
TAP	38	240	4
TAP	38	264	0
TAP	38	288	5
TAP	38	312	7
TAP	38	336	6
TAP	38	360	6
TAP	39	0	4
TAP	39	24	6
TAP	39	48	3
TAP	39	72	7
TAP	39	96	2
TAP	39	120	0
TAP	39	144	1
TAP	39	168	1
TAP	39	192	3
TAP	39	240	6
TAP	39	240	7
TAP	39	288	4
TAP	39	336	0
TAP	39	336	1
TAP	40	0	0
TAP	40	24	2
TAP	40	48	7
TAP	40	72	3
TAP	40	96	6
TAP	40	120	4
TAP	40	144	5
TAP	40	168	5
TAP	40	192	7
TAP	40	216	5
TAP	40	240	0
TAP	40	264	4
TAP	40	288	1
TAP	40	312	3
TAP	40	336	2
TAP	40	360	2
TAP	41	0	0
TAP	41	24	2
TAP	41	48	7
TAP	41	72	3
TAP	41	96	6
TAP	41	120	4
TAP	41	144	5
TAP	41	168	5
STR	41	192	7
SF_	41	192	7	96	48	3
BRK	41	288	7
STR	42	0	4
SI_	42	0	4	96	48	0
TAP	42	0	5
TAP	42	192	6
TAP	42	192	7
TAP	42	240	0
TAP	42	288	0
TAP	42	288	1
TAP	42	336	2
TAP	43	0	2
STR	43	0	3
SI_	43	0	3	96	48	7
TAP	43	192	0
TAP	43	192	1
TAP	43	240	7
TAP	43	288	6
TAP	43	288	7
TAP	43	336	5
STR	44	0	4
SI_	44	0	4	96	48	0
TAP	44	0	5
STR	44	96	5
SI_	44	96	5	96	48	1
TAP	44	192	2
STR	44	240	2
SCL	44	240	2	96	48	7
STR	44	336	3
SI_	44	336	3	96	48	7
STR	45	48	2
SI_	45	48	2	96	48	6
STR	45	144	5
SCR	45	144	5	96	48	0
TAP	45	240	1
TAP	45	336	2
TAP	46	0	2
STR	46	0	3
SI_	46	0	3	96	48	7
TAP	46	192	0
TAP	46	192	1
TAP	46	240	7
TAP	46	288	6
TAP	46	288	7
TAP	46	336	5
STR	47	0	4
SI_	47	0	4	96	48	0
TAP	47	0	5
TAP	47	192	6
TAP	47	192	7
TAP	47	240	0
TAP	47	288	0
TAP	47	288	1
TAP	47	336	2
TAP	48	0	2
STR	48	0	3
SI_	48	0	3	96	48	7
STR	48	96	2
SI_	48	96	2	96	48	6
TAP	48	192	5
STR	48	240	5
SCR	48	240	5	96	48	0
STR	48	336	2
SI_	48	336	2	96	48	6
STR	49	48	4
SF_	49	48	4	96	48	0
TAP	49	144	4
TAP	49	240	2
TAP	49	240	6
TAP	49	288	2
TAP	49	288	6
TAP	50	0	1
TAP	50	0	6
TAP	50	48	4
TAP	50	48	5
TAP	50	96	1
TAP	50	96	6
TAP	50	144	2
TAP	50	144	3
TAP	50	192	4
STR	50	192	5
SCR	50	192	5	96	48	1
TAP	50	240	3
TAP	50	264	3
TAP	50	312	2
TAP	50	336	2
TAP	51	0	2
TAP	51	0	4
TAP	51	48	3
TAP	51	48	5
TAP	51	72	3
STR	51	72	5
SI_	51	72	5	96	48	1
TAP	51	120	4
TAP	51	120	6
TAP	51	168	5
TAP	51	168	7
TAP	51	240	0
TAP	51	288	2
TAP	51	288	7
TAP	51	336	3
TAP	51	336	6
TAP	52	0	4
TAP	52	0	5
TAP	52	48	2
TAP	52	48	3
TAP	52	96	6
TAP	52	120	7
TAP	52	168	1
STR	52	192	0
SCL	52	192	0	96	48	5
TAP	52	240	2
TAP	52	288	3
TAP	52	336	4
TAP	53	0	3
TAP	53	0	5
TAP	53	48	2
TAP	53	48	4
STR	53	72	2
SI_	53	72	2	96	48	6
TAP	53	72	4
TAP	53	120	1
TAP	53	120	3
TAP	53	168	0
TAP	53	168	2
TAP	53	240	7
TAP	53	288	0
TAP	53	288	5
TAP	54	0	4
TAP	54	48	0
TAP	54	48	1
TAP	54	96	3
TAP	54	144	6
TAP	54	144	7
STR	54	192	4
SCR	54	192	4	96	48	7
TAP	54	216	4
TAP	54	264	0
TAP	54	288	0
TAP	54	336	1
TAP	55	0	2
TAP	55	0	4
TAP	55	48	3
TAP	55	48	5
TAP	55	72	3
STR	55	72	5
SI_	55	72	5	96	48	1
TAP	55	120	4
TAP	55	120	6
TAP	55	168	5
TAP	55	168	7
TAP	55	240	0
STR	55	288	2
SCL	55	288	2	96	48	7
STR	55	288	7
SCL	55	288	7	96	48	4
BRK	56	0	2
BRK	56	0	7
TAP	56	120	0
TAP	56	120	7
TAP	56	144	0
TAP	56	144	7
STR	56	192	1
SI_	56	192	1	96	24	4
TAP	56	192	6
TAP	56	264	1
STR	56	264	7
SI_	56	264	7	96	24	3
TAP	56	336	7
HLD	57	0	2	96
TAP	57	48	5
TAP	57	64	6
TAP	57	80	7
STR	57	96	0
SF_	57	96	0	96	48	4
TAP	57	192	0
BRK	57	288	1
BRK	57	288	6
TAP	58	0	2
TAP	58	0	3
TAP	58	48	0
TAP	58	48	7
TAP	58	96	4
TAP	58	96	5
TAP	58	144	0
TAP	58	144	7
STR	58	192	2
SCL	58	192	2	96	48	7
TAP	58	192	3
TAP	58	240	4
TAP	58	264	4
TAP	58	312	5
TAP	58	336	5
TAP	59	0	4
TAP	59	0	6
TAP	59	48	3
TAP	59	48	5
STR	59	72	3
SI_	59	72	3	96	48	7
TAP	59	72	5
TAP	59	120	2
TAP	59	120	4
TAP	59	168	1
TAP	59	168	3
TAP	59	240	0
TAP	59	288	7
TAP	59	336	4
TAP	59	336	5
TAP	60	0	1
TAP	60	0	3
TAP	60	48	4
TAP	60	48	6
TAP	60	96	2
TAP	60	120	0
TAP	60	168	5
STR	60	192	7
SCR	60	192	7	96	48	2
TAP	60	240	6
TAP	60	288	5
TAP	60	336	4
TAP	61	0	1
TAP	61	0	3
TAP	61	48	2
TAP	61	48	4
TAP	61	72	2
STR	61	72	4
SI_	61	72	4	96	48	0
TAP	61	120	3
TAP	61	120	5
TAP	61	168	4
TAP	61	168	6
TAP	61	240	7
TAP	61	288	2
TAP	61	288	6
TAP	62	0	2
TAP	62	0	5
TAP	62	48	4
TAP	62	48	7
TAP	62	96	2
TAP	62	96	5
TAP	62	144	0
TAP	62	144	3
TAP	62	192	1
TAP	62	192	5
TAP	62	216	1
TAP	62	216	5
TAP	62	264	3
TAP	62	264	7
TAP	62	288	3
STR	62	288	7
SI_	62	288	7	96	48	3
TAP	62	336	2
TAP	63	0	1
TAP	63	0	7
TAP	63	48	0
STR	63	72	0
SCR	63	72	0	96	48	3
TAP	63	120	4
TAP	63	168	5
TAP	63	240	7
STR	63	288	4
SCL	63	288	4	96	48	1
STR	63	288	7
SCL	63	288	7	96	48	4
BRK	64	0	4
BRK	64	0	7
TAP	64	120	0
TAP	64	120	7
TAP	64	144	0
TAP	64	144	7
TAP	64	192	1
STR	64	192	6
SI_	64	192	6	96	24	2
STR	64	264	0
SI_	64	264	0	96	24	4
TAP	64	264	6
TAP	64	336	0
HLD	65	0	6	96
TAP	65	48	3
TAP	65	64	2
TAP	65	80	1
HLD	65	96	0	96
TAP	65	144	4
TAP	65	160	5
TAP	65	176	6
TAP	65	192	7
TAP	65	240	3
TAP	65	240	4
BRK	65	288	1
BRK	65	288	6
TAP	66	0	1
TAP	66	48	5
TAP	66	72	5
TAP	66	96	0
TAP	66	144	6
TAP	66	168	7
TAP	66	192	5
TAP	66	216	0
TAP	66	240	4
TAP	66	264	1
TAP	66	288	2
TAP	66	288	3
BRK	67	0	0
BRK	67	0	1
BRK	67	72	4
BRK	67	72	5
BRK	67	144	2
BRK	67	144	6

T_REC_TAP	521
T_REC_BRK	28
T_REC_XTP	0
T_REC_HLD	20
T_REC_XHO	0
T_REC_STR	76
T_REC_BST	2
T_REC_XST	0
T_REC_TTP	0
T_REC_THO	0
T_REC_SLD	78
T_REC_ALL	725
T_NUM_TAP	597
T_NUM_BRK	30
T_NUM_HLD	20
T_NUM_SLD	78
T_NUM_ALL	725
T_JUDGE_TAP	627
T_JUDGE_HLD	40
T_JUDGE_SLD	78
T_JUDGE_ALL	745
TTM_EACHPAIRS	156
TTM_SCR_TAP	298500
TTM_SCR_BRK	78000
TTM_SCR_HLD	20000
TTM_SCR_SLD	117000
TTM_SCR_ALL	513500
TTM_SCR_S	495200
TTM_SCR_SS	510500
TTM_RAT_ACV	10058

