VERSION	0.00.00	1.03.00
FES_MODE	0
BPM_DEF	127.000	127.000	127.000	127.000
MET_DEF	4	4
RESOLUTION	384
CLK_DEF	384
COMPATIBLE_CODE	MA2

BPM	0	0	127.000
MET	0	0	4	4

STR	1	0	6
SI_	1	0	6	96	96	2
HLD	1	192	1	96
BRK	1	288	0
TAP	2	0	2
TAP	2	96	1
TAP	2	96	3
TAP	2	192	4
TAP	2	240	3
TAP	2	288	2
TAP	2	288	4
TAP	3	0	5
TAP	3	96	4
TAP	3	96	6
TAP	3	192	3
TAP	3	240	4
TAP	3	288	3
TAP	3	288	5
TAP	4	0	2
TAP	4	96	1
TAP	4	96	3
TAP	4	192	4
TAP	4	240	3
TAP	4	288	2
TAP	4	288	4
TAP	5	0	5
TAP	5	96	4
TAP	5	96	6
TAP	5	192	0
TAP	5	192	7
TAP	5	288	1
TAP	5	288	6
TAP	6	0	5
TAP	6	96	4
TAP	6	96	6
TAP	6	192	3
TAP	6	240	4
TAP	6	288	3
TAP	6	288	5
TAP	7	0	2
TAP	7	96	1
TAP	7	96	3
TAP	7	192	7
TAP	7	240	0
TAP	7	288	1
TAP	7	288	6
TAP	8	0	3
TAP	8	0	4
TAP	8	96	2
TAP	8	96	5
TAP	8	192	1
TAP	8	192	6
STR	8	288	0
SCR	8	288	0	96	96	3
STR	8	288	7
SCL	8	288	7	96	96	4
BRK	9	192	0
BRK	9	192	7
TAP	10	0	4
TAP	10	48	5
TAP	10	96	3
TAP	10	144	2
TAP	10	192	4
TAP	10	240	5
HLD	10	288	3	96
TAP	11	0	2
TAP	11	96	7
TAP	11	192	4
TAP	11	240	4
TAP	11	288	0
TAP	12	0	3
TAP	12	48	2
TAP	12	96	4
TAP	12	144	5
TAP	12	192	3
TAP	12	240	2
HLD	12	288	4	96
TAP	13	0	5
TAP	13	96	0
TAP	13	192	3
TAP	13	240	3
TAP	13	288	7
TAP	14	0	4
TAP	14	48	5
TAP	14	96	3
TAP	14	144	2
HLD	14	192	6	96
TAP	14	288	4
TAP	15	0	3
TAP	15	48	2
TAP	15	96	4
TAP	15	144	5
HLD	15	192	1	96
TAP	15	288	3
TAP	16	0	4
TAP	16	48	5
TAP	16	96	3
TAP	16	144	2
HLD	16	192	6	96
HLD	16	288	4	96
HLD	17	0	3	96
HLD	17	96	1	96
TAP	17	192	6
TAP	17	288	3
TAP	17	288	4
TAP	18	0	3
STR	18	0	5
SCR	18	0	5	96	96	0
TAP	18	192	2
TAP	18	288	1
TAP	18	288	3
STR	19	0	2
SCL	19	0	2	96	96	7
TAP	19	0	4
TAP	19	192	5
TAP	19	288	4
TAP	19	288	6
TAP	20	0	3
STR	20	0	5
SCR	20	0	5	96	96	0
TAP	20	192	2
TAP	20	288	1
TAP	20	288	3
HLD	21	0	6	192
TAP	21	96	5
HLD	21	192	1	96
TAP	21	288	2
STR	22	0	2
SCL	22	0	2	96	96	7
TAP	22	0	4
TAP	22	192	5
TAP	22	240	5
TAP	22	288	4
TAP	22	288	6
TAP	23	0	3
STR	23	0	5
SCR	23	0	5	96	96	0
TAP	23	192	2
TAP	23	240	2
TAP	23	288	1
TAP	23	288	3
STR	24	0	2
SCL	24	0	2	96	96	7
TAP	24	0	4
TAP	24	192	5
TAP	24	240	5
TAP	24	288	4
TAP	24	288	6
TAP	25	0	2
TAP	25	48	2
TAP	25	96	1
TAP	25	96	3
TAP	25	192	3
TAP	25	192	4
TAP	25	288	1
TAP	25	288	6
TAP	26	0	7
TAP	26	48	7
TAP	26	96	0
TAP	26	144	0
STR	26	192	1
SI_	26	192	1	96	48	4
STR	26	192	7
SI_	26	192	7	96	48	3
TAP	27	0	2
TAP	27	0	6
TAP	27	48	2
TAP	27	48	6
STR	27	96	1
SI_	27	96	1	96	48	4
STR	27	96	5
SI_	27	96	5	96	48	0
TAP	27	288	3
TAP	27	288	7
TAP	28	0	0
TAP	28	48	0
TAP	28	96	7
TAP	28	144	7
STR	28	192	0
SI_	28	192	0	96	48	4
STR	28	192	6
SI_	28	192	6	96	48	3
TAP	29	0	2
TAP	29	0	6
TAP	29	48	2
TAP	29	48	6
STR	29	96	1
SI_	29	96	1	96	48	4
STR	29	96	5
SI_	29	96	5	96	48	0
TAP	29	288	3
TAP	29	288	7
TAP	30	0	4
TAP	30	48	4
TAP	30	96	3
TAP	30	144	3
STR	30	192	2
SI_	30	192	2	96	48	5
STR	30	192	6
SI_	30	192	6	96	48	1
TAP	31	0	7
TAP	31	48	7
TAP	31	96	0
TAP	31	144	0
STR	31	192	1
SI_	31	192	1	96	48	6
STR	31	192	5
SI_	31	192	5	96	48	2
BRK	32	0	0
BRK	32	0	4
HLD	32	192	3	48
HLD	32	192	7	48
HLD	32	264	2	48
HLD	32	264	6	48
TAP	32	336	1
TAP	32	336	5
STR	33	0	1
SI_	33	0	1	96	48	7
STR	33	0	5
SI_	33	0	5	96	48	3
BRK	33	192	2
BRK	33	192	6
TAP	34	0	1
TAP	34	48	0
HLD	34	96	7	192
TAP	34	192	4
TAP	34	240	4
TAP	34	288	3
TAP	35	0	6
TAP	35	48	7
HLD	35	96	0	192
TAP	35	192	3
TAP	35	240	3
TAP	35	288	4
HLD	36	0	6	96
HLD	36	96	4	96
HLD	36	192	3	96
TAP	36	288	1
TAP	36	336	1
HLD	37	0	1	96
HLD	37	96	3	96
HLD	37	192	4	96
TAP	37	288	6
TAP	38	0	2
TAP	38	48	3
HLD	38	96	4	192
TAP	38	192	7
TAP	38	240	7
TAP	38	288	0
TAP	39	0	5
TAP	39	48	4
HLD	39	96	3	192
TAP	39	192	0
TAP	39	240	0
TAP	39	288	7
HLD	40	0	5	96
HLD	40	96	7	96
HLD	40	192	0	96
TAP	40	288	2
TAP	40	336	2
HLD	41	0	2	96
HLD	41	96	0	96
HLD	41	192	7	96
TAP	41	288	5
STR	42	0	2
SCL	42	0	2	96	96	7
TAP	42	0	4
TAP	42	192	5
TAP	42	240	5
TAP	42	288	4
TAP	42	288	6
TAP	43	0	3
STR	43	0	5
SCR	43	0	5	96	96	0
TAP	43	192	2
TAP	43	240	2
TAP	43	288	1
TAP	43	288	3
STR	44	0	2
SCL	44	0	2	96	96	7
TAP	44	0	4
TAP	44	192	5
TAP	44	240	5
TAP	44	288	4
TAP	44	288	6
HLD	45	0	1	192
TAP	45	96	2
HLD	45	192	6	96
TAP	45	288	5
TAP	46	0	3
STR	46	0	6
SCR	46	0	6	96	96	1
TAP	46	192	2
TAP	46	240	1
TAP	46	288	0
TAP	46	288	3
STR	47	0	1
SCL	47	0	1	96	96	6
TAP	47	0	4
TAP	47	192	5
TAP	47	240	6
TAP	47	288	4
TAP	47	288	7
TAP	48	0	3
STR	48	0	6
SCR	48	0	6	96	96	1
TAP	48	192	2
TAP	48	240	1
TAP	48	288	0
TAP	48	288	3
TAP	49	0	5
TAP	49	48	6
TAP	49	96	4
TAP	49	96	7
TAP	49	192	3
TAP	49	192	4
TAP	49	288	1
TAP	49	288	6
TAP	50	0	6
TAP	50	48	7
TAP	50	96	0
TAP	50	144	1
STR	50	192	0
SI_	50	192	0	96	48	4
STR	50	192	6
SI_	50	192	6	96	48	3
TAP	51	0	1
TAP	51	0	5
TAP	51	48	1
TAP	51	48	5
STR	51	96	2
SI_	51	96	2	96	48	7
STR	51	96	6
SI_	51	96	6	96	48	3
TAP	51	288	0
TAP	51	288	4
TAP	52	0	1
TAP	52	48	0
TAP	52	96	7
TAP	52	144	6
STR	52	192	1
SI_	52	192	1	96	48	4
STR	52	192	7
SI_	52	192	7	96	48	3
TAP	53	0	1
TAP	53	0	5
TAP	53	48	1
TAP	53	48	5
STR	53	96	2
SI_	53	96	2	96	48	7
STR	53	96	6
SI_	53	96	6	96	48	3
TAP	53	288	0
TAP	53	288	4
TAP	54	0	1
TAP	54	48	2
TAP	54	96	3
TAP	54	144	4
STR	54	192	1
SI_	54	192	1	96	48	6
STR	54	192	5
SI_	54	192	5	96	48	2
TAP	55	0	6
TAP	55	48	7
TAP	55	96	0
TAP	55	144	1
STR	55	192	2
SI_	55	192	2	96	48	5
STR	55	192	6
SI_	55	192	6	96	48	1
BRK	56	0	3
BRK	56	0	7
HLD	56	192	0	48
HLD	56	192	4	48
HLD	56	264	1	48
HLD	56	264	5	48
TAP	56	336	2
TAP	56	336	6
STR	57	0	2
SI_	57	0	2	96	48	4
STR	57	0	6
SI_	57	0	6	96	48	0
BRK	57	192	1
BRK	57	192	5
TAP	58	0	7
TAP	58	48	5
TAP	58	96	3
TAP	58	144	2
STR	58	192	1
SI_	58	192	1	96	48	5
STR	58	192	3
SI_	58	192	3	96	48	6
TAP	59	0	3
TAP	59	0	7
TAP	59	48	2
TAP	59	48	6
STR	59	96	1
SCR	59	96	1	96	48	4
STR	59	96	5
SCR	59	96	5	96	48	0
TAP	59	288	3
TAP	59	288	7
TAP	60	0	0
TAP	60	48	2
TAP	60	96	4
TAP	60	144	5
STR	60	192	4
SI_	60	192	4	96	48	1
STR	60	192	6
SI_	60	192	6	96	48	2
TAP	61	0	0
TAP	61	0	4
TAP	61	48	1
TAP	61	48	5
STR	61	96	2
SCL	61	96	2	96	48	7
STR	61	96	6
SCL	61	96	6	96	48	3
TAP	61	288	0
TAP	61	288	4
TAP	62	0	6
TAP	62	48	5
TAP	62	96	4
TAP	62	144	3
STR	62	192	2
SCR	62	192	2	96	48	5
STR	62	192	6
SCR	62	192	6	96	48	1
TAP	63	0	1
TAP	63	48	0
TAP	63	96	7
TAP	63	144	6
STR	63	192	1
SCL	63	192	1	96	48	6
STR	63	192	5
SCL	63	192	5	96	48	2
BRK	64	0	0
BRK	64	0	4
HLD	64	192	3	48
HLD	64	192	7	48
HLD	64	264	2	48
HLD	64	264	6	48
TAP	64	336	1
TAP	64	336	5
STR	65	0	1
SCL	65	0	1	96	48	7
STR	65	0	5
SCL	65	0	5	96	48	3
BRK	65	192	2
BRK	65	192	6
TAP	65	288	3
TAP	65	288	4
TAP	66	0	0
TAP	66	48	0
TAP	66	96	7
TAP	66	144	7
TAP	66	192	3
TAP	66	240	1
TAP	66	288	4
TAP	66	336	6
TAP	67	0	3
TAP	67	0	4
TAP	67	72	0
TAP	67	72	7
BRK	67	144	1
BRK	67	144	6

T_REC_TAP	294
T_REC_BRK	17
T_REC_XTP	0
T_REC_HLD	41
T_REC_XHO	0
T_REC_STR	57
T_REC_BST	0
T_REC_XST	0
T_REC_TTP	0
T_REC_THO	0
T_REC_SLD	57
T_REC_ALL	466
T_NUM_TAP	351
T_NUM_BRK	17
T_NUM_HLD	41
T_NUM_SLD	57
T_NUM_ALL	466
T_JUDGE_TAP	368
T_JUDGE_HLD	82
T_JUDGE_SLD	57
T_JUDGE_ALL	507
TTM_EACHPAIRS	107
TTM_SCR_TAP	175500
TTM_SCR_BRK	44200
TTM_SCR_HLD	41000
TTM_SCR_SLD	85500
TTM_SCR_ALL	346200
TTM_SCR_S	334200
TTM_SCR_SS	344500
TTM_RAT_ACV	10049

