VERSION	0.00.00	1.03.00
FES_MODE	0
BPM_DEF	127.000	127.000	127.000	127.000
MET_DEF	4	4
RESOLUTION	384
CLK_DEF	384
COMPATIBLE_CODE	MA2

BPM	0	0	127.000
MET	0	0	4	4

STR	1	0	0
SSL	1	0	0	96	192	4
TAP	1	0	7
TAP	2	0	5
TAP	2	96	5
TAP	2	192	4
TAP	2	288	4
TAP	3	0	3
TAP	3	96	2
TAP	3	192	1
TAP	3	192	4
TAP	4	0	4
TAP	4	96	5
TAP	4	192	3
TAP	4	192	6
TAP	4	288	7
TAP	5	0	0
TAP	5	96	7
TAP	5	192	0
TAP	5	192	7
TAP	6	0	2
TAP	6	96	2
TAP	6	192	3
TAP	6	288	3
TAP	7	0	4
TAP	7	96	5
TAP	7	192	3
TAP	7	192	6
TAP	8	0	3
TAP	8	96	2
TAP	8	192	1
TAP	8	192	4
TAP	8	288	0
TAP	9	0	7
TAP	9	96	0
BRK	9	192	1
BRK	9	192	6
TAP	10	0	2
TAP	10	48	2
TAP	10	96	3
TAP	10	192	5
TAP	10	240	5
TAP	10	288	4
TAP	11	0	6
TAP	11	0	7
TAP	11	96	0
TAP	11	96	1
TAP	11	192	2
TAP	11	192	7
TAP	12	0	5
TAP	12	48	5
TAP	12	96	4
TAP	12	192	2
TAP	12	240	2
TAP	12	288	3
TAP	13	0	0
TAP	13	0	1
TAP	13	96	6
TAP	13	96	7
TAP	13	192	0
TAP	13	192	5
TAP	14	0	2
TAP	14	48	2
TAP	14	96	2
TAP	14	96	3
HLD	14	192	1	96
HLD	14	192	4	96
TAP	15	0	5
TAP	15	48	5
TAP	15	96	4
TAP	15	96	5
HLD	15	192	3	96
HLD	15	192	6	96
TAP	16	0	1
TAP	16	48	1
TAP	16	96	0
TAP	16	192	6
TAP	16	240	6
TAP	16	288	7
TAP	17	0	0
TAP	17	0	7
TAP	17	96	1
TAP	17	96	6
TAP	17	192	2
TAP	17	192	5
STR	18	0	4
SCL	18	0	4	96	192	1
TAP	18	0	5
TAP	19	0	2
STR	19	0	3
SCR	19	0	3	96	192	6
STR	20	0	4
SI_	20	0	4	96	192	0
TAP	20	0	5
TAP	21	0	6
TAP	21	0	7
TAP	21	96	4
TAP	21	96	5
TAP	21	192	2
TAP	21	192	3
TAP	21	288	0
TAP	21	288	1
TAP	22	0	6
STR	22	0	7
SCR	22	0	7	96	192	2
STR	23	0	0
SCL	23	0	0	96	192	5
TAP	23	0	1
TAP	24	0	6
STR	24	0	7
SI_	24	0	7	96	192	3
TAP	25	0	2
TAP	25	0	3
TAP	25	96	1
TAP	25	96	4
TAP	25	192	0
TAP	25	192	5
BRK	25	288	6
BRK	25	288	7
TAP	26	0	5
TAP	26	48	4
TAP	26	96	3
TAP	26	96	6
TAP	26	192	2
TAP	26	240	3
TAP	26	288	1
TAP	26	288	4
TAP	27	0	2
TAP	27	0	3
TAP	27	96	4
TAP	27	96	5
TAP	27	192	1
TAP	27	192	3
HLD	28	0	6	96
HLD	28	96	7	96
HLD	28	192	0	96
TAP	28	288	1
TAP	29	0	2
TAP	29	0	3
TAP	29	96	4
TAP	29	96	5
TAP	29	192	3
TAP	29	192	6
TAP	30	0	2
TAP	30	48	3
TAP	30	96	1
TAP	30	96	4
TAP	30	192	5
TAP	30	240	4
TAP	30	288	3
TAP	30	288	6
TAP	31	0	4
TAP	31	0	5
TAP	31	96	2
TAP	31	96	3
TAP	31	192	4
TAP	31	192	6
STR	32	0	6
SI_	32	0	6	96	144	3
STR	32	0	7
SI_	32	0	7	96	144	2
STR	33	0	0
SI_	33	0	0	96	144	5
STR	33	0	1
SI_	33	0	1	96	144	4
TAP	34	0	2
TAP	34	0	3
TAP	34	96	4
TAP	34	96	6
TAP	34	192	2
TAP	34	192	3
TAP	34	288	4
TAP	34	288	6
TAP	35	0	3
TAP	35	0	5
TAP	35	96	2
TAP	35	96	4
TAP	35	192	1
TAP	35	192	3
TAP	36	0	4
TAP	36	0	5
TAP	36	96	6
TAP	36	96	7
TAP	36	192	0
TAP	36	240	0
TAP	36	288	1
TAP	36	288	7
TAP	37	0	2
TAP	37	0	3
TAP	37	96	0
TAP	37	96	1
TAP	37	192	7
TAP	37	240	7
TAP	37	288	0
TAP	37	288	6
TAP	38	0	4
TAP	38	0	5
TAP	38	96	1
TAP	38	96	3
TAP	38	192	4
TAP	38	192	5
TAP	38	288	1
TAP	38	288	3
TAP	39	0	2
TAP	39	0	4
TAP	39	96	3
TAP	39	96	5
TAP	39	192	4
TAP	39	192	6
TAP	40	0	4
TAP	40	0	5
TAP	40	96	2
TAP	40	96	3
TAP	40	192	1
TAP	40	240	1
TAP	40	288	0
TAP	40	288	2
TAP	41	0	6
TAP	41	0	7
TAP	41	96	4
TAP	41	96	5
TAP	41	192	3
TAP	41	192	4
TAP	41	240	3
TAP	41	240	4
TAP	41	288	2
TAP	41	288	5
STR	42	0	0
SCL	42	0	0	96	192	5
TAP	42	0	1
TAP	43	0	6
STR	43	0	7
SCR	43	0	7	96	192	2
STR	44	0	0
SI_	44	0	0	96	192	4
TAP	44	0	1
TAP	45	0	2
TAP	45	0	3
TAP	45	96	0
TAP	45	96	1
TAP	45	192	6
TAP	45	192	7
TAP	45	288	4
TAP	45	288	5
TAP	46	0	2
STR	46	0	3
SCR	46	0	3	96	192	6
STR	47	0	4
SCL	47	0	4	96	192	1
TAP	47	0	5
TAP	48	0	2
STR	48	0	3
SI_	48	0	3	96	192	7
TAP	49	0	6
TAP	49	0	7
TAP	49	96	0
TAP	49	96	5
TAP	49	192	1
TAP	49	192	4
BRK	49	288	2
BRK	49	288	3
TAP	50	0	1
TAP	50	48	0
TAP	50	96	2
TAP	50	96	7
TAP	50	192	6
TAP	50	240	7
TAP	50	288	0
TAP	50	288	5
TAP	51	0	6
TAP	51	0	7
TAP	51	96	0
TAP	51	96	1
TAP	51	192	5
TAP	51	192	7
HLD	52	0	2	96
HLD	52	96	3	96
HLD	52	192	4	96
TAP	52	288	5
TAP	53	0	6
TAP	53	0	7
TAP	53	96	0
TAP	53	96	1
TAP	53	192	2
TAP	53	192	7
TAP	54	0	6
TAP	54	48	7
TAP	54	96	0
TAP	54	96	5
TAP	54	192	1
TAP	54	240	0
TAP	54	288	2
TAP	54	288	7
TAP	55	0	0
TAP	55	0	1
TAP	55	96	6
TAP	55	96	7
TAP	55	192	0
TAP	55	192	2
STR	56	0	2
SI_	56	0	2	96	144	7
STR	56	0	3
SI_	56	0	3	96	144	6
STR	57	0	4
SI_	57	0	4	96	144	1
STR	57	0	5
SI_	57	0	5	96	144	0
TAP	58	0	2
TAP	58	0	3
TAP	58	48	2
TAP	58	48	3
TAP	58	96	1
TAP	58	96	4
TAP	58	192	4
TAP	58	192	5
TAP	58	240	4
TAP	58	240	5
TAP	58	288	3
TAP	58	288	6
TAP	59	0	1
TAP	59	0	3
TAP	59	96	4
TAP	59	96	6
TAP	59	192	0
TAP	59	192	4
HLD	60	0	1	96
HLD	60	96	3	96
HLD	60	192	4	96
TAP	60	288	6
TAP	61	0	5
TAP	61	0	7
TAP	61	96	3
TAP	61	96	4
TAP	61	192	0
TAP	61	192	2
TAP	62	0	4
TAP	62	0	5
TAP	62	48	4
TAP	62	48	5
TAP	62	96	3
TAP	62	96	6
TAP	62	192	2
TAP	62	192	3
TAP	62	240	2
TAP	62	240	3
TAP	62	288	1
TAP	62	288	4
TAP	63	0	4
TAP	63	0	6
TAP	63	96	1
TAP	63	96	3
TAP	63	192	3
TAP	63	192	7
STR	64	0	0
SCL	64	0	0	96	144	5
STR	64	0	1
SCR	64	0	1	96	144	4
STR	65	0	6
SCL	65	0	6	96	144	3
STR	65	0	7
SCR	65	0	7	96	144	2
TAP	66	0	3
TAP	66	48	3
TAP	66	96	4
TAP	66	144	4
TAP	66	192	3
TAP	66	240	4
TAP	66	288	2
TAP	66	288	5
TAP	67	0	0
TAP	67	0	7
TAP	67	72	0
TAP	67	72	7
TAP	67	144	1
TAP	67	144	6

T_REC_TAP	306
T_REC_BRK	6
T_REC_XTP	0
T_REC_HLD	13
T_REC_XHO	0
T_REC_STR	25
T_REC_BST	0
T_REC_XST	0
T_REC_TTP	0
T_REC_THO	0
T_REC_SLD	25
T_REC_ALL	375
T_NUM_TAP	331
T_NUM_BRK	6
T_NUM_HLD	13
T_NUM_SLD	25
T_NUM_ALL	375
T_JUDGE_TAP	337
T_JUDGE_HLD	26
T_JUDGE_SLD	25
T_JUDGE_ALL	388
TTM_EACHPAIRS	133
TTM_SCR_TAP	165500
TTM_SCR_BRK	15600
TTM_SCR_HLD	13000
TTM_SCR_SLD	37500
TTM_SCR_ALL	231600
TTM_SCR_S	224100
TTM_SCR_SS	231000
TTM_RAT_ACV	10025

