VERSION	0.00.00	1.03.00
FES_MODE	0
BPM_DEF	127.000	127.000	127.000	127.000
MET_DEF	4	4
RESOLUTION	384
CLK_DEF	384
COMPATIBLE_CODE	MA2

BPM	0	0	127.000
MET	0	0	4	4

TAP	2	0	0
TAP	2	192	0
TAP	3	0	1
TAP	3	192	1
TAP	4	0	2
TAP	4	192	2
TAP	5	0	3
TAP	5	192	3
TAP	5	192	4
TAP	6	0	4
TAP	6	192	4
TAP	7	0	5
TAP	7	192	5
TAP	8	0	6
TAP	8	192	6
TAP	9	0	7
BRK	9	192	0
BRK	9	192	7
HLD	10	0	6	192
HLD	11	0	5	192
HLD	12	0	4	192
TAP	13	0	3
TAP	13	192	3
TAP	13	192	4
HLD	14	0	2	192
HLD	15	0	1	192
HLD	16	0	0	192
TAP	17	0	7
TAP	17	192	0
TAP	17	192	7
STR	18	0	0
SI_	18	0	0	96	288	4
STR	20	0	7
SI_	20	0	7	96	288	3
STR	22	0	0
SI_	22	0	0	96	288	5
STR	24	0	7
SI_	24	0	7	96	288	2
BRK	26	0	0
TAP	26	96	0
TAP	26	192	0
TAP	27	0	1
TAP	27	96	1
TAP	27	192	0
TAP	27	192	1
TAP	28	0	2
TAP	28	96	2
TAP	28	192	2
TAP	29	0	3
TAP	29	96	3
TAP	29	192	3
TAP	29	192	4
TAP	30	0	4
TAP	30	96	4
TAP	30	192	4
TAP	31	0	5
TAP	31	96	5
TAP	31	192	4
TAP	31	192	5
TAP	32	0	6
TAP	32	96	6
TAP	32	192	6
TAP	33	0	7
TAP	33	96	7
TAP	33	192	0
TAP	33	192	7
TAP	34	0	0
TAP	34	96	0
TAP	34	192	0
TAP	35	0	7
TAP	35	96	0
TAP	35	192	0
TAP	35	192	7
TAP	36	0	6
TAP	36	96	6
TAP	36	192	6
TAP	37	0	5
TAP	37	96	4
TAP	37	192	4
TAP	37	192	5
TAP	38	0	4
TAP	38	96	4
TAP	38	192	4
TAP	39	0	3
TAP	39	96	4
TAP	39	192	3
TAP	39	192	4
TAP	40	0	2
TAP	40	96	2
TAP	40	192	2
TAP	41	0	1
TAP	41	96	0
TAP	41	192	0
TAP	41	192	1
STR	42	0	1
SI_	42	0	1	96	288	5
STR	44	0	6
SI_	44	0	6	96	288	2
STR	46	0	1
SI_	46	0	1	96	288	4
STR	48	0	6
SI_	48	0	6	96	288	3
TAP	50	0	1
TAP	50	96	1
TAP	50	192	1
TAP	51	0	2
TAP	51	0	3
TAP	51	96	2
TAP	51	96	3
TAP	51	192	2
TAP	51	192	3
TAP	52	0	3
TAP	52	96	3
TAP	52	192	3
TAP	53	0	3
TAP	53	0	4
TAP	53	96	3
TAP	53	96	4
TAP	53	192	3
TAP	53	192	4
TAP	54	0	4
TAP	54	96	4
TAP	54	192	4
TAP	55	0	4
TAP	55	0	5
TAP	55	96	4
TAP	55	96	5
TAP	55	192	4
TAP	55	192	5
TAP	56	0	6
TAP	56	96	6
TAP	56	192	6
TAP	57	0	0
TAP	57	0	7
TAP	57	96	0
TAP	57	96	7
TAP	57	192	0
TAP	57	192	7
BRK	58	0	0
TAP	58	96	0
TAP	58	192	7
TAP	58	288	7
TAP	59	0	6
TAP	59	0	7
TAP	59	96	6
TAP	59	96	7
TAP	59	192	6
TAP	59	192	7
TAP	60	0	5
TAP	60	96	5
TAP	60	192	4
TAP	60	288	4
TAP	61	0	3
TAP	61	0	4
TAP	61	96	3
TAP	61	96	4
TAP	61	192	3
TAP	61	192	4
TAP	62	0	2
TAP	62	96	2
TAP	62	192	1
TAP	62	288	1
TAP	63	0	0
TAP	63	0	7
TAP	63	96	0
TAP	63	96	7
TAP	63	192	0
TAP	63	192	7
TAP	64	0	6
TAP	64	0	7
TAP	64	96	6
TAP	64	96	7
TAP	64	192	6
TAP	64	192	7
TAP	65	0	0
TAP	65	0	1
TAP	65	96	0
TAP	65	96	1
TAP	65	192	0
TAP	65	192	1
TAP	66	0	0
TAP	66	0	7
TAP	66	96	0
TAP	66	96	7
TAP	66	192	0
TAP	66	192	7
HLD	67	0	0	144
HLD	67	0	7	144

T_REC_TAP	160
T_REC_BRK	4
T_REC_XTP	0
T_REC_HLD	8
T_REC_XHO	0
T_REC_STR	8
T_REC_BST	0
T_REC_XST	0
T_REC_TTP	0
T_REC_THO	0
T_REC_SLD	8
T_REC_ALL	188
T_NUM_TAP	168
T_NUM_BRK	4
T_NUM_HLD	8
T_NUM_SLD	8
T_NUM_ALL	188
T_JUDGE_TAP	172
T_JUDGE_HLD	30
T_JUDGE_SLD	8
T_JUDGE_ALL	210
TTM_EACHPAIRS	43
TTM_SCR_TAP	84000
TTM_SCR_BRK	10400
TTM_SCR_HLD	8000
TTM_SCR_SLD	12000
TTM_SCR_ALL	114400
TTM_SCR_S	110600
TTM_SCR_SS	114000
TTM_RAT_ACV	10035

