VERSION	0.00.00	1.03.00
FES_MODE	0
BPM_DEF	167.000	167.000	167.000	167.000
MET_DEF	4	4
RESOLUTION	384
CLK_DEF	384
COMPATIBLE_CODE	MA2

BPM	0	0	167.000
MET	0	0	4	4

TAP	1	192	3
TAP	1	256	3
TAP	1	288	4
HLD	1	352	2	512
TAP	1	352	5
TAP	2	96	3
TAP	2	160	5
TAP	2	192	5
TAP	2	288	3
TAP	2	352	5
TAP	3	0	5
TAP	3	96	3
TAP	3	192	4
TAP	3	256	4
TAP	3	288	3
TAP	3	352	2
HLD	3	352	5	512
TAP	4	96	4
TAP	4	160	2
TAP	4	192	2
TAP	4	288	4
TAP	4	352	2
TAP	5	0	2
TAP	5	96	4
TAP	5	192	3
TAP	5	256	3
TAP	5	288	4
HLD	5	352	1	512
TAP	5	352	6
TAP	6	96	3
TAP	6	160	5
TAP	6	192	5
TAP	6	288	3
TAP	6	352	5
TAP	7	0	5
TAP	7	96	3
TAP	7	192	4
TAP	7	256	4
TAP	7	288	3
STR	7	352	1
SCR	7	352	1	96	48	3
STR	7	352	6
SCL	7	352	6	96	48	4
TAP	8	192	4
TAP	8	256	4
TAP	8	288	3
TAP	8	352	3
BRK	9	0	2
BRK	9	0	5
TAP	9	96	4
TAP	9	160	0
TAP	9	160	5
TAP	9	256	1
TAP	9	288	2
TAP	9	288	7
STR	10	0	4
SI_	10	0	4	96	48	2
TAP	10	0	5
TAP	10	96	6
STR	10	192	3
SI_	10	192	3	96	48	1
TAP	10	192	4
TAP	10	288	6
STR	11	0	4
SCL	11	0	4	96	48	2
TAP	11	0	5
TAP	11	96	6
STR	11	192	3
SCL	11	192	3	96	48	1
TAP	11	192	4
TAP	11	288	6
STR	12	0	4
SI_	12	0	4	96	48	1
TAP	12	0	5
TAP	12	96	6
STR	12	192	4
SI_	12	192	4	96	48	0
TAP	12	192	5
TAP	12	288	7
STR	13	0	4
SCL	13	0	4	96	48	1
TAP	13	0	5
TAP	13	96	6
STR	13	192	4
SUL	13	192	4	96	48	0
TAP	13	192	5
TAP	13	288	7
TAP	14	0	3
TAP	14	0	6
TAP	14	64	5
TAP	14	96	4
TAP	14	192	1
TAP	14	192	4
TAP	14	256	2
TAP	14	288	3
TAP	14	352	1
TAP	14	352	6
TAP	15	0	1
TAP	15	0	6
TAP	15	64	4
TAP	15	96	3
TAP	15	160	3
TAP	15	192	4
TAP	15	256	4
TAP	15	288	3
TAP	15	288	5
TAP	16	0	1
TAP	16	0	4
TAP	16	64	2
TAP	16	96	3
TAP	16	192	3
TAP	16	192	6
TAP	16	256	5
TAP	16	288	4
BRK	16	352	1
BRK	16	352	6
TAP	17	0	1
TAP	17	0	6
TAP	17	64	2
TAP	17	64	3
STR	17	96	2
SI_	17	96	2	96	48	7
STR	17	96	3
SI_	17	96	3	96	48	6
BRK	17	288	0
STR	18	0	2
SCR	18	0	2	96	48	5
TAP	18	96	7
STR	18	192	5
SCL	18	192	5	96	48	2
TAP	18	288	0
STR	19	0	2
SCR	19	0	2	96	48	5
TAP	19	96	0
STR	19	192	5
SCL	19	192	5	96	48	2
TAP	19	288	7
STR	20	0	1
SXR	20	0	1	96	192	6
TAP	20	96	5
TAP	20	192	4
TAP	20	288	3
STR	21	0	6
SXL	21	0	6	96	192	1
TAP	21	96	2
TAP	21	192	3
TAP	21	288	4
STR	22	0	5
SCL	22	0	5	96	48	2
TAP	22	96	0
STR	22	192	2
SCR	22	192	2	96	48	5
TAP	22	288	7
STR	23	0	5
SCL	23	0	5	96	48	2
TAP	23	96	7
STR	23	192	2
SCR	23	192	2	96	48	5
TAP	23	288	0
STR	24	0	6
SXL	24	0	6	96	192	1
TAP	24	96	2
TAP	24	192	3
TAP	24	288	4
STR	25	0	1
SXR	25	0	1	96	192	6
TAP	25	96	5
TAP	25	192	4
TAP	25	288	3
STR	26	0	1
SCL	26	0	1	96	48	6
TAP	26	96	4
STR	26	192	6
SCR	26	192	6	96	48	1
TAP	26	288	3
STR	27	0	1
SCL	27	0	1	96	48	6
TAP	27	96	3
STR	27	192	6
SCR	27	192	6	96	48	1
TAP	27	288	4
STR	28	0	2
SXL	28	0	2	96	192	5
TAP	28	96	6
TAP	28	192	7
TAP	28	288	0
STR	29	0	5
SXR	29	0	5	96	192	2
TAP	29	96	1
TAP	29	192	0
TAP	29	288	7
HLD	30	0	6	96
TAP	30	96	7
HLD	30	192	1	96
TAP	30	288	0
STR	31	0	1
SXL	31	0	1	96	192	7
STR	31	0	6
SXR	31	0	6	96	192	0
TAP	32	0	2
TAP	32	32	3
TAP	32	64	2
TAP	32	96	5
TAP	32	128	4
TAP	32	160	5
TAP	32	192	2
TAP	32	224	3
TAP	32	256	1
TAP	32	288	5
TAP	32	320	4
TAP	32	352	6
TAP	33	0	0
TAP	33	64	1
TAP	33	64	7
TAP	33	160	0
TAP	33	160	6
TAP	33	256	3
TAP	33	256	4
TAP	33	288	3
TAP	33	288	4
BST	34	0	6
SI_	34	0	6	96	48	2
BST	34	0	7
SI_	34	0	7	96	48	4
BRK	34	96	6
BRK	34	96	7
BRK	34	192	0
BRK	34	192	1
TAP	34	256	2
TAP	34	288	3
BRK	35	0	1
BRK	35	0	3
BRK	35	64	3
BRK	35	64	4
HLD	35	160	6	96
HLD	35	160	7	96
STR	35	288	6
SI_	35	288	6	96	48	2
STR	35	288	7
SI_	35	288	7	96	48	4
BRK	36	0	6
BRK	36	0	7
BRK	36	96	0
BRK	36	96	1
TAP	36	192	2
TAP	36	192	5
TAP	36	256	3
STR	36	288	4
SCR	36	288	4	96	192	3
TAP	37	288	1
TAP	37	288	4
STR	38	0	4
SI_	38	0	4	96	48	7
TAP	38	0	5
TAP	38	96	6
TAP	38	192	2
STR	38	192	3
SI_	38	192	3	96	48	0
TAP	38	288	1
STR	39	0	4
SI_	39	0	4	96	48	0
SI_	39	0	4	96	48	6
TAP	39	0	5
TAP	39	192	2
STR	39	192	3
SI_	39	192	3	96	48	1
SI_	39	192	3	96	48	7
TAP	40	0	0
TAP	40	0	7
TAP	40	96	3
TAP	40	96	4
TAP	40	192	2
TAP	40	192	5
TAP	40	288	1
TAP	40	288	6
STR	41	0	0
SCR	41	0	0	96	48	3
STR	41	0	7
SCL	41	0	7	96	48	4
BRK	41	192	1
BRK	41	192	6
TAP	41	288	3
TAP	41	288	4
BST	42	0	6
SI_	42	0	6	96	48	2
BST	42	0	7
SI_	42	0	7	96	48	4
BRK	42	96	6
BRK	42	96	7
BRK	42	192	0
BRK	42	192	1
TAP	42	256	2
TAP	42	288	3
BRK	43	0	2
BRK	43	0	4
BRK	43	64	3
BRK	43	64	5
HLD	43	160	6	96
HLD	43	160	7	96
STR	43	288	6
SI_	43	288	6	96	48	2
STR	43	288	7
SI_	43	288	7	96	48	4
BRK	44	0	6
BRK	44	0	7
BRK	44	96	0
BRK	44	96	1
TAP	44	192	2
TAP	44	192	5
TAP	44	256	4
STR	44	288	3
SCL	44	288	3	96	192	4
TAP	45	288	3
TAP	45	288	6
STR	46	0	2
SUL	46	0	2	96	48	5
TAP	46	0	3
TAP	46	96	4
TAP	46	192	4
STR	46	192	5
SUR	46	192	5	96	48	2
TAP	46	288	3
STR	47	0	2
SCL	47	0	2	96	48	7
TAP	47	0	3
TAP	47	96	6
TAP	47	192	4
TAP	47	192	5
STR	47	288	6
SI_	47	288	6	96	48	2
STR	47	288	7
SI_	47	288	7	96	48	4
TAP	48	96	0
TAP	48	96	1
STR	48	192	4
SI_	48	192	4	96	48	1
HLD	48	192	6	96
STR	49	0	1
SI_	49	0	1	96	48	6
STR	49	0	5
SI_	49	0	5	96	48	2
STR	49	192	0
SI_	49	192	0	96	48	4
STR	49	288	7
SCL	49	288	7	96	288	0
HLD	51	0	0	96
HLD	51	0	1	96
HLD	51	160	6	96
HLD	51	160	7	96
TAP	51	288	3
TAP	51	288	4
TAP	52	0	1
TAP	52	0	6
TAP	52	96	3
TAP	52	96	4
STR	52	192	0
SCR	52	192	0	96	192	3
STR	52	192	5
SCR	52	192	5	96	192	0
STR	53	288	6
SI_	53	288	6	96	96	2
STR	53	288	7
SI_	53	288	7	96	96	4
BRK	54	192	0
BRK	54	192	1
TAP	54	288	6
TAP	54	288	7
TAP	55	0	0
STR	55	0	1
SXR	55	0	1	96	192	6
TAP	56	0	1
TAP	56	0	6
TAP	56	64	0
TAP	56	96	7
TAP	56	192	1
TAP	56	192	6
BRK	56	288	0
BRK	56	288	7
HLD	57	0	6	96
HLD	57	0	7	96
HLD	57	160	0	96
HLD	57	160	1	96
TAP	57	288	3
TAP	57	288	4
STR	58	0	0
SCR	58	0	0	96	96	3
STR	58	96	3
SCR	58	96	3	96	96	6
STR	58	192	6
SCR	58	192	6	96	96	1
STR	58	288	1
SCR	58	288	1	96	96	4
STR	59	0	4
SCR	59	0	4	96	96	7
STR	59	96	7
SCR	59	96	7	96	96	2
TAP	59	192	2
TAP	59	288	5
STR	60	0	7
SCL	60	0	7	96	96	4
STR	60	96	4
SCL	60	96	4	96	96	1
STR	60	192	1
SCL	60	192	1	96	96	6
STR	60	288	6
SCL	60	288	6	96	96	3
STR	61	0	3
SCL	61	0	3	96	96	0
STR	61	96	0
SCL	61	96	0	96	96	5
TAP	61	192	5
TAP	61	288	2
STR	62	0	0
SCR	62	0	0	96	96	4
STR	62	96	4
SCR	62	96	4	96	96	0
STR	62	192	0
SCR	62	192	0	96	96	4
STR	62	288	4
SCR	62	288	4	96	96	0
STR	63	0	0
SCR	63	0	0	96	96	4
STR	63	96	4
SCR	63	96	4	96	96	0
TAP	63	192	0
TAP	63	288	4
STR	64	0	7
SCL	64	0	7	96	96	3
STR	64	96	3
SCL	64	96	3	96	96	7
STR	64	192	7
SCL	64	192	7	96	96	3
TAP	64	288	3
TAP	65	0	7
TAP	65	96	2
TAP	65	96	3
TAP	65	160	1
TAP	65	160	4
TAP	65	256	5
TAP	65	288	4
TAP	65	288	6
BST	66	0	6
SUL	66	0	6	96	48	2
BST	66	0	7
SI_	66	0	7	96	48	4
BRK	66	96	6
BRK	66	96	7
BRK	66	192	0
BRK	66	192	1
TAP	66	256	2
TAP	66	288	3
BRK	67	0	2
BRK	67	0	4
BRK	67	64	0
BRK	67	64	2
HLD	67	160	6	96
HLD	67	160	7	96
STR	67	288	6
SUL	67	288	6	96	48	2
STR	67	288	7
SI_	67	288	7	96	48	4
BRK	68	0	6
BRK	68	0	7
BRK	68	96	0
BRK	68	96	1
TAP	68	192	2
TAP	68	192	5
TAP	68	256	3
STR	68	288	4
SXL	68	288	4	96	192	1
STR	69	288	3
SI_	69	288	3	96	48	0
STR	69	288	4
SI_	69	288	4	96	48	7
STR	70	96	3
SI_	70	96	3	96	48	0
STR	70	96	4
SI_	70	96	4	96	48	7
STR	70	288	3
SI_	70	288	3	96	48	0
STR	70	288	4
SI_	70	288	4	96	48	7
HLD	71	96	3	64
HLD	71	96	4	64
HLD	71	192	3	64
HLD	71	192	4	64
TAP	71	288	3
TAP	71	288	4
BST	72	0	5
SCR	72	0	5	96	192	2
TAP	72	96	4
TAP	72	192	4
TAP	72	288	3
STR	73	0	1
SI_	73	0	1	96	48	4
STR	73	0	6
SI_	73	0	6	96	48	3
BRK	73	192	0
BRK	73	192	7
STR	73	288	3
SCL	73	288	3	96	48	1
TAP	73	288	5
BRK	74	0	4
STR	74	96	3
SCL	74	96	3	96	48	0
BRK	74	96	6
BRK	74	192	4
STR	74	288	4
SXL	74	288	4	96	192	7
TAP	74	288	6
TAP	75	0	5
STR	75	288	4
SI_	75	288	4	96	48	7
STR	75	288	5
SI_	75	288	5	96	48	2
BRK	76	0	4
BRK	76	0	5
BRK	76	96	0
BRK	76	96	1
TAP	76	192	2
TAP	76	192	5
TAP	76	256	4
STR	76	288	3
SXR	76	288	3	96	192	6
TAP	77	288	2
STR	77	288	5
SLR	77	288	5	96	96	2
TAP	78	0	3
TAP	78	192	0
TAP	78	192	1
STR	78	288	7
SI_	78	288	7	96	96	5
STR	79	0	5
SSR	79	0	5	96	144	1
TAP	79	96	0
TAP	79	192	0
STR	79	288	0
SUR	79	288	0	96	96	4
HLD	79	288	7	96
TAP	80	192	3
TAP	80	192	4
TAP	80	288	1
TAP	80	288	6
BST	81	0	6
SI_	81	0	6	96	48	2
BST	81	0	7
SI_	81	0	7	96	48	4
BRK	81	96	6
BRK	81	96	7
BRK	81	192	0
BRK	81	192	1
BRK	81	288	2
BRK	81	288	7
STR	82	0	0
SV_	82	0	0	96	48	3
STR	82	0	6
SV_	82	0	6	96	48	3
STR	82	192	2
SI_	82	192	2	96	48	4
STR	82	192	5
SI_	82	192	5	96	48	1
STR	83	0	0
SV_	83	0	0	96	48	3
STR	83	0	6
SV_	83	0	6	96	48	3
STR	83	192	2
SI_	83	192	2	96	48	4
STR	83	192	5
SI_	83	192	5	96	48	1
STR	84	0	1
SV_	84	0	1	96	48	4
STR	84	0	7
SV_	84	0	7	96	48	4
STR	84	192	2
SI_	84	192	2	96	48	6
STR	84	192	5
SI_	84	192	5	96	48	3
STR	85	0	1
SV_	85	0	1	96	48	4
STR	85	0	7
SV_	85	0	7	96	48	4
STR	85	192	2
SI_	85	192	2	96	48	6
STR	85	192	5
SI_	85	192	5	96	48	3
STR	86	0	1
SI_	86	0	1	96	48	3
STR	86	0	7
SI_	86	0	7	96	48	5
STR	86	192	1
SI_	86	192	1	96	48	4
STR	86	192	7
SI_	86	192	7	96	48	4
STR	87	0	0
SUR	87	0	0	96	48	5
TAP	87	0	7
STR	87	192	0
SCL	87	192	0	96	48	3
TAP	87	192	7
STR	88	0	0
SV_	88	0	0	96	48	3
STR	88	0	6
SV_	88	0	6	96	48	3
STR	88	192	2
SI_	88	192	2	96	48	4
STR	88	192	5
SI_	88	192	5	96	48	1
STR	89	0	3
SCL	89	0	3	96	192	4
TAP	90	0	2
TAP	90	64	2
TAP	90	96	3
TAP	90	160	3
TAP	90	192	4
TAP	90	256	4
TAP	90	288	5
TAP	90	352	5
TAP	91	0	4
TAP	91	64	4
STR	91	96	3
SXR	91	96	3	96	144	4
TAP	91	160	3
TAP	91	192	2
TAP	92	0	5
TAP	92	64	5
TAP	92	96	4
TAP	92	160	4
TAP	92	192	3
TAP	92	256	3
TAP	92	288	2
TAP	92	352	2
TAP	93	0	1
TAP	93	0	3
TAP	93	96	4
TAP	93	96	5
TAP	93	160	3
TAP	93	160	6
TAP	93	256	1
TAP	93	256	6
BRK	93	288	1
BRK	93	288	6

T_REC_TAP	274
T_REC_BRK	64
T_REC_XTP	0
T_REC_HLD	25
T_REC_XHO	0
T_REC_STR	129
T_REC_BST	9
T_REC_XST	0
T_REC_TTP	0
T_REC_THO	0
T_REC_SLD	140
T_REC_ALL	641
T_NUM_TAP	403
T_NUM_BRK	73
T_NUM_HLD	25
T_NUM_SLD	140
T_NUM_ALL	641
T_JUDGE_TAP	476
T_JUDGE_HLD	77
T_JUDGE_SLD	140
T_JUDGE_ALL	693
TTM_EACHPAIRS	144
TTM_SCR_TAP	201500
TTM_SCR_BRK	189800
TTM_SCR_HLD	25000
TTM_SCR_SLD	210000
TTM_SCR_ALL	626300
TTM_SCR_S	600450
TTM_SCR_SS	619000
TTM_RAT_ACV	10117

