VERSION	0.00.00	1.03.00
FES_MODE	0
BPM_DEF	167.000	167.000	167.000	167.000
MET_DEF	4	4
RESOLUTION	384
CLK_DEF	384
COMPATIBLE_CODE	MA2

BPM	0	0	167.000
MET	0	0	4	4

HLD	2	0	2	96
TAP	2	96	3
HLD	2	192	5	96
TAP	2	288	4
HLD	3	0	2	96
TAP	3	96	3
HLD	3	192	5	96
TAP	3	288	4
HLD	4	0	1	96
TAP	4	96	3
HLD	4	192	6	96
TAP	4	288	4
HLD	5	0	1	96
TAP	5	96	3
HLD	5	192	6	96
TAP	5	288	4
HLD	6	0	0	96
TAP	6	96	2
HLD	6	192	7	96
TAP	6	288	5
HLD	7	0	0	96
TAP	7	96	2
HLD	7	192	7	96
TAP	7	288	5
TAP	8	0	0
TAP	8	0	7
TAP	8	96	1
TAP	8	96	6
TAP	8	192	2
TAP	8	192	5
STR	8	288	3
SCL	8	288	3	96	160	0
STR	8	288	4
SCR	8	288	4	96	160	7
BRK	9	288	1
BRK	9	288	6
STR	10	0	0
SUR	10	0	0	96	96	5
STR	10	0	1
SCR	10	0	1	96	96	4
TAP	10	288	1
TAP	10	288	6
STR	11	0	6
SCL	11	0	6	96	96	3
STR	11	0	7
SUL	11	0	7	96	96	2
TAP	11	288	1
TAP	11	288	6
TAP	12	0	3
TAP	12	0	4
TAP	12	96	1
TAP	12	96	7
TAP	12	192	3
TAP	12	192	4
TAP	12	288	0
TAP	12	288	6
TAP	13	0	3
TAP	13	0	4
TAP	13	96	1
TAP	13	96	7
TAP	13	192	3
TAP	13	192	4
TAP	13	288	0
TAP	13	288	6
HLD	14	0	2	96
TAP	14	0	4
TAP	14	96	0
TAP	14	192	3
HLD	14	192	5	96
TAP	14	288	7
HLD	15	0	2	96
TAP	15	0	4
TAP	15	96	0
TAP	15	192	3
HLD	15	192	5	96
TAP	15	288	7
STR	16	0	3
SXR	16	0	3	96	192	0
STR	16	0	4
SXL	16	0	4	96	192	7
BST	17	0	0
SCR	17	0	0	96	96	3
BST	17	0	7
SCL	17	0	7	96	96	4
HLD	18	0	2	96
HLD	18	96	3	96
TAP	18	192	4
TAP	18	288	0
TAP	18	288	6
HLD	19	0	5	96
HLD	19	96	4	96
TAP	19	192	3
TAP	19	288	1
TAP	19	288	7
TAP	20	0	2
TAP	20	0	3
TAP	20	96	2
TAP	20	96	4
TAP	20	192	4
TAP	20	192	5
TAP	20	288	3
TAP	20	288	5
STR	21	0	2
SI_	21	0	2	96	96	7
STR	21	0	3
SI_	21	0	3	96	96	6
HLD	22	0	5	96
HLD	22	96	4	96
TAP	22	192	3
TAP	22	288	1
TAP	22	288	7
HLD	23	0	2	96
HLD	23	96	3	96
TAP	23	192	4
TAP	23	288	0
TAP	23	288	6
TAP	24	0	4
TAP	24	0	5
TAP	24	96	3
TAP	24	96	5
TAP	24	192	2
TAP	24	192	3
TAP	24	288	2
TAP	24	288	4
STR	25	0	4
SI_	25	0	4	96	96	1
STR	25	0	5
SI_	25	0	5	96	96	0
HLD	26	0	2	192
TAP	26	0	3
TAP	26	96	4
TAP	26	192	3
TAP	26	288	1
TAP	26	288	6
TAP	27	0	4
HLD	27	0	5	192
TAP	27	96	3
TAP	27	192	4
TAP	27	288	1
TAP	27	288	6
TAP	28	0	2
TAP	28	0	3
TAP	28	96	1
TAP	28	96	4
TAP	28	192	4
TAP	28	192	5
TAP	28	288	3
TAP	28	288	6
STR	29	0	2
SCL	29	0	2	96	96	7
STR	29	0	3
SCR	29	0	3	96	96	6
TAP	30	0	4
HLD	30	0	5	192
TAP	30	96	3
TAP	30	192	4
TAP	30	288	1
TAP	30	288	6
HLD	31	0	2	192
TAP	31	0	3
TAP	31	96	4
TAP	31	192	3
TAP	31	288	1
TAP	31	288	6
STR	32	0	4
SCL	32	0	4	96	96	1
STR	32	0	5
SCR	32	0	5	96	96	0
STR	33	0	6
SCL	33	0	6	96	96	3
STR	33	0	7
SCR	33	0	7	96	96	2
TAP	34	0	2
TAP	34	0	4
TAP	34	96	3
TAP	34	96	5
HLD	34	192	2	96
TAP	34	192	4
TAP	34	288	4
TAP	35	0	0
HLD	35	0	7	160
TAP	35	160	0
TAP	35	288	1
TAP	35	288	6
TAP	36	0	3
TAP	36	0	4
TAP	36	96	3
TAP	36	96	4
STR	36	256	3
SXR	36	256	3	96	224	0
STR	36	256	4
SXL	36	256	4	96	224	7
TAP	38	0	1
TAP	38	96	0
TAP	38	96	2
TAP	38	192	6
TAP	38	288	5
TAP	38	288	7
TAP	39	0	2
TAP	39	96	1
TAP	39	96	3
TAP	39	192	5
STR	39	288	4
SXR	39	288	4	96	192	2
STR	39	288	6
SCR	39	288	6	96	192	2
TAP	41	0	0
TAP	41	0	7
TAP	41	96	3
TAP	41	96	4
BRK	41	192	1
BRK	41	192	6
TAP	42	0	3
TAP	42	0	5
TAP	42	96	2
TAP	42	96	4
TAP	42	192	3
HLD	42	192	5	96
TAP	42	288	3
HLD	43	0	0	160
TAP	43	0	7
TAP	43	160	7
TAP	43	288	1
TAP	43	288	6
TAP	44	0	3
TAP	44	0	4
TAP	44	96	3
TAP	44	96	4
STR	44	256	3
SXR	44	256	3	96	224	0
STR	44	256	4
SXL	44	256	4	96	224	7
TAP	46	0	2
TAP	46	96	1
TAP	46	96	3
TAP	46	192	5
TAP	46	288	4
TAP	46	288	6
TAP	47	0	1
TAP	47	96	0
TAP	47	96	2
TAP	47	192	6
STR	47	288	5
SXL	47	288	5	96	192	2
TAP	47	288	7
TAP	49	0	0
TAP	49	96	1
TAP	49	96	7
TAP	49	192	7
TAP	49	288	0
TAP	49	288	6
HLD	50	0	1	96
TAP	50	96	0
HLD	50	192	6	96
TAP	50	288	7
HLD	51	0	1	96
TAP	51	96	0
HLD	51	192	6	96
TAP	51	288	7
HLD	52	0	2	96
TAP	52	96	0
HLD	52	192	5	96
TAP	52	288	7
HLD	53	0	2	96
TAP	53	96	0
HLD	53	192	5	96
TAP	53	288	7
HLD	54	0	3	96
TAP	54	96	0
HLD	54	192	4	96
TAP	54	288	7
HLD	55	0	3	96
TAP	55	96	0
HLD	55	192	4	96
TAP	55	288	7
HLD	56	0	2	96
TAP	56	96	1
HLD	56	192	5	96
TAP	56	288	6
HLD	57	0	2	96
TAP	57	96	1
HLD	57	192	5	96
TAP	57	288	6
STR	58	0	0
SCR	58	0	0	96	96	3
STR	59	0	4
SCR	59	0	4	96	96	7
STR	60	0	7
SCL	60	0	7	96	96	4
STR	61	0	3
SCL	61	0	3	96	96	0
STR	62	0	0
SCR	62	0	0	96	96	3
STR	62	0	4
SCR	62	0	4	96	96	7
STR	63	0	3
SCL	63	0	3	96	96	0
STR	63	0	7
SCL	63	0	7	96	96	4
STR	64	0	0
SCR	64	0	0	96	192	7
HLD	65	0	0	160
TAP	65	160	7
BRK	65	288	1
BRK	65	288	6
TAP	66	0	4
TAP	66	0	5
TAP	66	96	2
TAP	66	96	3
TAP	66	192	4
HLD	66	192	5	96
TAP	66	288	6
HLD	67	0	0	160
TAP	67	160	7
TAP	67	256	0
TAP	67	288	7
TAP	68	0	3
TAP	68	0	4
TAP	68	96	3
TAP	68	96	4
STR	68	256	3
SXR	68	256	3	96	224	0
STR	68	256	4
SXL	68	256	4	96	224	7
TAP	70	0	6
TAP	70	96	5
TAP	70	96	7
TAP	70	192	1
TAP	70	288	0
TAP	70	288	2
TAP	71	0	5
TAP	71	96	4
TAP	71	96	6
TAP	71	192	2
STR	71	288	1
SCL	71	288	1	96	192	5
STR	71	288	3
SXL	71	288	3	96	192	5
TAP	73	0	0
TAP	73	0	7
TAP	73	96	3
TAP	73	96	4
BRK	73	192	1
BRK	73	192	6
TAP	74	0	2
TAP	74	0	3
TAP	74	96	4
TAP	74	96	5
HLD	74	192	2	96
TAP	74	192	3
TAP	74	288	1
TAP	75	0	0
HLD	75	0	7	160
TAP	75	160	0
TAP	75	256	7
TAP	75	288	0
TAP	76	0	3
TAP	76	0	4
TAP	76	96	3
TAP	76	96	4
STR	76	256	3
SXR	76	256	3	96	224	0
STR	76	256	4
SXL	76	256	4	96	224	7
TAP	78	0	5
TAP	78	96	4
TAP	78	96	6
TAP	78	192	2
TAP	78	288	1
TAP	78	288	3
TAP	79	0	6
TAP	79	96	5
TAP	79	96	7
TAP	79	192	1
TAP	79	288	0
STR	79	288	2
SXR	79	288	2	96	192	5
TAP	81	0	6
TAP	81	0	7
TAP	81	96	0
TAP	81	96	5
TAP	81	192	0
TAP	81	192	1
TAP	81	288	2
TAP	81	288	7
STR	82	0	6
SXR	82	0	6	96	288	3
STR	82	0	7
SXL	82	0	7	96	288	2
TAP	83	192	1
TAP	83	288	0
TAP	83	288	7
TAP	84	0	6
TAP	84	96	7
TAP	84	192	0
TAP	84	192	5
TAP	84	288	0
TAP	84	288	5
TAP	85	0	1
TAP	85	96	0
TAP	85	192	2
TAP	85	192	7
TAP	85	288	2
TAP	85	288	7
STR	86	0	0
SXR	86	0	0	96	288	5
STR	86	0	1
SXL	86	0	1	96	288	4
TAP	87	192	3
TAP	87	288	3
TAP	87	288	4
TAP	88	0	5
TAP	88	96	4
TAP	88	192	3
TAP	88	192	6
TAP	88	288	3
TAP	88	288	6
TAP	89	0	2
TAP	89	96	3
BRK	89	192	1
BRK	89	192	4
TAP	90	0	2
TAP	90	0	3
TAP	90	96	1
TAP	90	96	4
TAP	90	160	2
TAP	90	192	3
TAP	90	288	1
TAP	90	288	4
TAP	91	0	4
TAP	91	0	5
TAP	91	96	3
TAP	91	96	6
TAP	91	160	5
TAP	91	192	4
TAP	91	288	3
TAP	91	288	6
TAP	92	0	3
TAP	92	0	4
TAP	92	64	3
TAP	92	96	4
TAP	92	160	4
TAP	92	192	3
TAP	92	256	3
TAP	92	288	4
TAP	92	352	4
HLD	93	0	3	160
TAP	93	160	4
BRK	93	288	1
BRK	93	288	6

T_REC_TAP	290
T_REC_BRK	12
T_REC_XTP	0
T_REC_HLD	54
T_REC_XHO	0
T_REC_STR	45
T_REC_BST	2
T_REC_XST	0
T_REC_TTP	0
T_REC_THO	0
T_REC_SLD	47
T_REC_ALL	450
T_NUM_TAP	335
T_NUM_BRK	14
T_NUM_HLD	54
T_NUM_SLD	47
T_NUM_ALL	450
T_JUDGE_TAP	349
T_JUDGE_HLD	128
T_JUDGE_SLD	47
T_JUDGE_ALL	524
TTM_EACHPAIRS	131
TTM_SCR_TAP	167500
TTM_SCR_BRK	36400
TTM_SCR_HLD	54000
TTM_SCR_SLD	70500
TTM_SCR_ALL	328400
TTM_SCR_S	317200
TTM_SCR_SS	327000
TTM_RAT_ACV	10042

