VERSION	0.00.00	1.03.00
FES_MODE	0
BPM_DEF	167.000	167.000	167.000	167.000
MET_DEF	4	4
RESOLUTION	384
CLK_DEF	384
COMPATIBLE_CODE	MA2

BPM	0	0	167.000
MET	0	0	4	4

STR	2	0	2
SCL	2	0	2	96	480	5
STR	4	0	5
SCR	4	0	5	96	480	2
STR	6	0	1
SCR	6	0	1	96	480	6
STR	8	0	0
SCR	8	0	0	96	384	3
STR	8	0	7
SCL	8	0	7	96	384	4
TAP	10	0	3
TAP	10	96	3
TAP	10	192	2
TAP	10	192	3
TAP	11	0	4
TAP	11	96	4
TAP	11	192	4
TAP	11	192	5
TAP	12	0	2
TAP	12	96	2
TAP	12	192	2
TAP	12	192	3
TAP	13	0	5
TAP	13	96	5
TAP	13	192	4
TAP	13	192	5
TAP	14	0	1
TAP	14	96	1
TAP	14	192	0
TAP	14	192	1
TAP	15	0	6
TAP	15	96	6
TAP	15	192	6
TAP	15	192	7
TAP	16	0	0
TAP	16	96	0
TAP	16	192	0
TAP	16	192	7
TAP	17	0	0
TAP	17	0	7
TAP	17	96	0
TAP	17	96	7
TAP	17	192	1
TAP	17	192	6
TAP	18	0	2
TAP	18	96	3
TAP	18	192	2
TAP	18	192	3
TAP	19	0	5
TAP	19	96	4
TAP	19	192	4
TAP	19	192	5
TAP	20	0	2
TAP	20	96	2
TAP	20	96	3
TAP	20	192	5
TAP	20	288	4
TAP	20	288	5
TAP	21	0	3
TAP	21	0	6
TAP	21	192	0
TAP	21	192	7
TAP	22	0	1
TAP	22	96	0
TAP	22	192	0
TAP	22	192	1
TAP	23	0	6
TAP	23	96	7
TAP	23	192	6
TAP	23	192	7
TAP	24	0	1
TAP	24	96	0
TAP	24	96	1
TAP	24	192	6
TAP	24	288	6
TAP	24	288	7
TAP	25	0	0
TAP	25	0	5
TAP	25	192	3
TAP	25	192	4
TAP	26	0	5
TAP	26	96	4
TAP	26	192	4
TAP	26	192	5
TAP	27	0	2
TAP	27	96	3
TAP	27	192	2
TAP	27	192	3
TAP	28	0	5
TAP	28	96	4
TAP	28	96	5
TAP	28	192	2
TAP	28	288	2
TAP	28	288	3
TAP	29	0	1
TAP	29	0	4
TAP	29	192	0
TAP	29	192	7
TAP	30	0	6
TAP	30	96	7
TAP	30	192	6
TAP	30	192	7
TAP	31	0	1
TAP	31	96	0
TAP	31	192	0
TAP	31	192	1
STR	32	0	0
SXL	32	0	0	96	480	3
STR	32	0	7
SXR	32	0	7	96	480	4
BRK	34	0	2
BRK	34	0	3
TAP	34	96	2
TAP	34	96	3
TAP	34	192	0
TAP	34	192	1
HLD	35	0	2	96
HLD	35	0	3	96
TAP	35	192	0
TAP	35	192	1
BRK	36	0	4
BRK	36	0	5
TAP	36	96	4
TAP	36	96	5
TAP	36	192	6
TAP	36	192	7
STR	37	0	4
SI_	37	0	4	96	144	1
STR	37	0	5
SI_	37	0	5	96	144	0
TAP	38	0	1
TAP	38	96	0
TAP	38	96	1
TAP	38	192	6
TAP	38	288	6
TAP	38	288	7
TAP	39	0	0
TAP	39	96	0
TAP	39	96	7
TAP	39	192	0
TAP	39	192	7
STR	39	288	0
SCR	39	288	0	96	240	3
STR	39	288	7
SCL	39	288	7	96	240	4
TAP	41	0	3
TAP	41	0	4
TAP	41	96	3
TAP	41	96	4
TAP	41	192	2
TAP	41	192	5
BRK	42	0	4
BRK	42	0	5
TAP	42	96	4
TAP	42	96	5
TAP	42	192	6
TAP	42	192	7
HLD	43	0	4	96
HLD	43	0	5	96
TAP	43	192	6
TAP	43	192	7
BRK	44	0	2
BRK	44	0	3
TAP	44	96	2
TAP	44	96	3
TAP	44	192	0
TAP	44	192	1
STR	45	0	2
SI_	45	0	2	96	144	7
STR	45	0	3
SI_	45	0	3	96	144	6
TAP	46	0	6
TAP	46	96	6
TAP	46	96	7
TAP	46	192	1
TAP	46	288	0
TAP	46	288	1
TAP	47	0	7
TAP	47	96	0
TAP	47	96	7
TAP	47	192	0
TAP	47	192	7
STR	47	288	0
SCR	47	288	0	96	240	3
STR	47	288	7
SCL	47	288	7	96	240	4
TAP	49	0	3
TAP	49	96	4
TAP	49	192	3
TAP	49	192	4
STR	49	288	3
SCL	49	288	3	96	288	0
STR	49	288	4
SCR	49	288	4	96	288	7
TAP	51	192	0
TAP	51	192	7
HLD	52	0	1	192
TAP	52	96	0
TAP	52	192	0
HLD	53	0	2	192
TAP	53	96	3
TAP	53	192	3
HLD	54	0	5	192
TAP	54	96	4
TAP	54	192	4
HLD	55	0	6	192
TAP	55	96	7
TAP	55	192	7
TAP	56	0	1
TAP	56	96	0
TAP	56	192	0
TAP	56	192	1
TAP	57	0	6
TAP	57	96	7
TAP	57	192	6
TAP	57	192	7
STR	58	0	6
SCL	58	0	6	96	480	1
STR	60	0	1
SCR	60	0	1	96	480	6
STR	62	0	5
SCR	62	0	5	96	480	2
STR	64	0	3
SCL	64	0	3	96	384	0
STR	64	0	4
SCR	64	0	4	96	384	7
BRK	66	0	4
BRK	66	0	5
TAP	66	96	4
TAP	66	96	5
TAP	66	192	6
TAP	66	192	7
HLD	67	0	4	96
HLD	67	0	5	96
TAP	67	192	6
TAP	67	192	7
BRK	68	0	2
BRK	68	0	3
TAP	68	96	2
TAP	68	96	3
TAP	68	192	0
TAP	68	192	1
STR	69	0	2
SI_	69	0	2	96	144	7
STR	69	0	3
SI_	69	0	3	96	144	6
TAP	70	0	6
TAP	70	96	6
TAP	70	96	7
TAP	70	192	1
TAP	70	288	0
TAP	70	288	1
TAP	71	0	7
TAP	71	96	0
TAP	71	96	7
TAP	71	192	0
TAP	71	192	7
STR	71	288	0
SCR	71	288	0	96	240	3
STR	71	288	7
SCL	71	288	7	96	240	4
TAP	73	0	3
TAP	73	0	4
TAP	73	96	3
TAP	73	96	4
TAP	73	192	2
TAP	73	192	5
BRK	74	0	2
BRK	74	0	3
TAP	74	96	2
TAP	74	96	3
TAP	74	192	0
TAP	74	192	1
HLD	75	0	2	96
HLD	75	0	3	96
TAP	75	192	0
TAP	75	192	1
BRK	76	0	4
BRK	76	0	5
TAP	76	96	4
TAP	76	96	5
TAP	76	192	6
TAP	76	192	7
STR	77	0	4
SI_	77	0	4	96	144	1
STR	77	0	5
SI_	77	0	5	96	144	0
TAP	78	0	1
TAP	78	96	0
TAP	78	96	1
TAP	78	192	6
TAP	78	288	6
TAP	78	288	7
TAP	79	0	0
TAP	79	96	0
TAP	79	96	7
TAP	79	192	0
TAP	79	192	7
STR	79	288	0
SCR	79	288	0	96	240	3
STR	79	288	7
SCL	79	288	7	96	240	4
TAP	81	0	4
TAP	81	96	3
TAP	81	192	3
TAP	81	192	4
STR	81	288	3
SCL	81	288	3	96	288	0
STR	81	288	4
SCR	81	288	4	96	288	7
TAP	83	192	0
TAP	83	192	7
HLD	84	0	6	192
TAP	84	96	7
TAP	84	192	7
HLD	85	0	5	192
TAP	85	96	4
TAP	85	192	4
HLD	86	0	2	192
TAP	86	96	3
TAP	86	192	3
HLD	87	0	1	192
TAP	87	96	0
TAP	87	192	0
TAP	88	0	6
TAP	88	96	7
TAP	88	192	6
TAP	88	192	7
TAP	89	0	1
TAP	89	96	0
TAP	89	192	0
TAP	89	192	1
HLD	90	0	2	192
HLD	90	192	3	192
TAP	91	0	4
TAP	91	192	2
TAP	91	192	5
HLD	92	0	5	192
HLD	92	192	4	192
STR	93	0	3
SI_	93	0	3	96	192	7

T_REC_TAP	239
T_REC_BRK	16
T_REC_XTP	0
T_REC_HLD	20
T_REC_XHO	0
T_REC_STR	33
T_REC_BST	0
T_REC_XST	0
T_REC_TTP	0
T_REC_THO	0
T_REC_SLD	33
T_REC_ALL	341
T_NUM_TAP	272
T_NUM_BRK	16
T_NUM_HLD	20
T_NUM_SLD	33
T_NUM_ALL	341
T_JUDGE_TAP	288
T_JUDGE_HLD	64
T_JUDGE_SLD	33
T_JUDGE_ALL	385
TTM_EACHPAIRS	106
TTM_SCR_TAP	136000
TTM_SCR_BRK	41600
TTM_SCR_HLD	20000
TTM_SCR_SLD	49500
TTM_SCR_ALL	247100
TTM_SCR_S	238150
TTM_SCR_SS	245500
TTM_RAT_ACV	10065

