VERSION	0.00.00	1.03.00
FES_MODE	0
BPM_DEF	167.000	167.000	167.000	167.000
MET_DEF	4	4
RESOLUTION	384
CLK_DEF	384
COMPATIBLE_CODE	MA2

BPM	0	0	167.000
MET	0	0	4	4

TAP	2	0	3
TAP	2	192	3
TAP	3	0	3
TAP	4	0	2
TAP	4	192	2
TAP	5	0	2
TAP	6	0	1
TAP	6	192	1
TAP	7	0	1
TAP	8	0	0
TAP	8	192	0
TAP	9	0	0
TAP	9	0	7
TAP	10	0	7
TAP	10	192	7
TAP	11	0	6
TAP	11	96	6
TAP	11	192	6
TAP	12	0	5
TAP	12	192	5
TAP	13	0	4
TAP	13	96	4
TAP	13	192	4
TAP	14	0	3
TAP	14	192	3
TAP	15	0	2
TAP	15	96	2
TAP	15	192	2
TAP	16	0	1
TAP	16	192	1
TAP	17	0	0
TAP	17	96	0
TAP	17	192	0
HLD	18	0	7	384
HLD	20	0	0	384
HLD	22	0	1	384
TAP	24	0	2
TAP	24	192	2
TAP	25	0	2
TAP	25	0	3
HLD	26	0	3	384
HLD	28	0	4	384
HLD	30	0	5	384
TAP	32	0	6
TAP	32	192	6
TAP	33	0	6
TAP	33	0	7
TAP	34	0	0
TAP	34	96	0
TAP	34	192	0
TAP	35	0	7
TAP	35	96	7
TAP	35	192	7
TAP	36	0	6
TAP	36	96	6
TAP	36	192	6
TAP	37	0	5
TAP	37	96	5
TAP	37	192	4
TAP	37	192	5
TAP	38	0	4
TAP	38	96	4
TAP	38	192	4
TAP	39	0	3
TAP	39	96	3
TAP	39	192	3
TAP	40	0	2
TAP	40	96	2
TAP	40	192	2
TAP	41	0	1
TAP	41	96	1
BRK	41	192	0
BRK	41	192	1
TAP	42	0	7
TAP	42	96	7
TAP	42	192	7
TAP	43	0	0
TAP	43	96	0
TAP	43	192	0
TAP	44	0	1
TAP	44	96	1
TAP	44	192	1
TAP	45	0	2
TAP	45	96	2
TAP	45	192	2
TAP	45	192	3
TAP	46	0	3
TAP	46	96	3
TAP	46	192	3
TAP	47	0	4
TAP	47	96	4
TAP	47	192	4
TAP	48	0	5
TAP	48	96	5
TAP	48	192	5
TAP	49	0	6
TAP	49	96	6
TAP	49	192	6
TAP	49	192	7
STR	50	0	0
SI_	50	0	0	96	288	4
STR	52	0	7
SI_	52	0	7	96	288	3
STR	54	0	0
SI_	54	0	0	96	288	5
STR	56	0	7
SI_	56	0	7	96	288	2
HLD	58	0	0	384
HLD	58	0	1	384
HLD	60	0	6	384
HLD	60	0	7	384
HLD	62	0	4	384
HLD	62	0	5	384
HLD	64	0	2	384
HLD	64	0	3	384
BRK	66	0	1
TAP	66	96	1
TAP	66	192	1
TAP	67	0	2
TAP	67	96	2
TAP	67	192	2
TAP	68	0	3
TAP	68	96	3
TAP	68	192	3
TAP	69	0	3
TAP	69	0	4
TAP	69	96	3
TAP	69	96	4
TAP	69	192	3
TAP	69	192	4
TAP	70	0	5
TAP	70	96	5
TAP	70	192	5
TAP	71	0	6
TAP	71	96	6
TAP	71	192	6
TAP	72	0	7
TAP	72	96	7
TAP	72	192	7
TAP	73	0	0
TAP	73	0	7
TAP	73	96	0
TAP	73	96	7
BRK	73	192	0
BRK	73	192	7
TAP	74	0	1
TAP	74	96	1
TAP	74	192	1
TAP	75	0	0
TAP	75	96	0
TAP	75	192	0
TAP	76	0	7
TAP	76	96	7
TAP	76	192	7
TAP	77	0	6
TAP	77	0	7
TAP	77	96	6
TAP	77	96	7
TAP	77	192	6
TAP	77	192	7
TAP	78	0	5
TAP	78	96	5
TAP	78	192	5
TAP	79	0	4
TAP	79	96	4
TAP	79	192	4
TAP	80	0	3
TAP	80	96	3
TAP	80	192	3
TAP	81	0	2
TAP	81	0	3
TAP	81	96	2
TAP	81	96	3
TAP	81	192	2
TAP	81	192	3
TAP	82	0	1
TAP	82	96	1
TAP	82	192	1
TAP	83	0	2
TAP	83	96	2
TAP	83	192	2
TAP	83	192	3
TAP	84	0	3
TAP	84	96	3
TAP	84	192	3
TAP	85	0	4
TAP	85	96	4
TAP	85	192	3
TAP	85	192	4
TAP	86	0	5
TAP	86	96	5
TAP	86	192	5
TAP	87	0	6
TAP	87	96	6
TAP	87	192	6
TAP	87	192	7
TAP	88	0	7
TAP	88	96	7
TAP	88	192	7
TAP	89	0	0
TAP	89	96	0
TAP	89	192	0
TAP	89	192	7
TAP	90	0	7
TAP	90	192	7
TAP	91	0	0
TAP	91	192	0
TAP	92	0	0
TAP	92	0	7
TAP	92	192	0
TAP	92	192	7
HLD	93	0	0	288
HLD	93	0	7	288

T_REC_TAP	184
T_REC_BRK	5
T_REC_XTP	0
T_REC_HLD	16
T_REC_XHO	0
T_REC_STR	4
T_REC_BST	0
T_REC_XST	0
T_REC_TTP	0
T_REC_THO	0
T_REC_SLD	4
T_REC_ALL	213
T_NUM_TAP	188
T_NUM_BRK	5
T_NUM_HLD	16
T_NUM_SLD	4
T_NUM_ALL	213
T_JUDGE_TAP	193
T_JUDGE_HLD	124
T_JUDGE_SLD	4
T_JUDGE_ALL	321
TTM_EACHPAIRS	30
TTM_SCR_TAP	94000
TTM_SCR_BRK	13000
TTM_SCR_HLD	16000
TTM_SCR_SLD	6000
TTM_SCR_ALL	129000
TTM_SCR_S	124650
TTM_SCR_SS	128500
TTM_RAT_ACV	10038

