VERSION	0.00.00	1.03.00
FES_MODE	0
BPM_DEF	181.000	181.000	181.000	181.000
MET_DEF	4	4
RESOLUTION	384
CLK_DEF	384
COMPATIBLE_CODE	MA2

BPM	0	0	181.000
MET	0	0	4	4
MET	54	0	4	3
MET	55	192	4	4

TAP	2	0	4
TAP	2	0	5
TAP	2	96	2
TAP	2	96	3
TAP	2	192	0
TAP	2	192	7
TAP	2	240	0
TAP	2	240	7
BRK	2	288	1
BRK	2	288	6
TAP	3	0	2
TAP	3	48	3
TAP	3	96	1
TAP	3	96	4
TAP	3	144	5
TAP	3	192	6
TAP	3	192	7
TAP	3	240	0
TAP	3	288	1
TAP	3	288	4
TAP	3	336	3
TAP	4	0	5
TAP	4	48	4
TAP	4	96	3
TAP	4	96	6
TAP	4	144	2
TAP	4	192	0
TAP	4	192	1
TAP	4	240	7
TAP	4	288	3
TAP	4	288	6
TAP	4	336	4
TAP	5	0	2
TAP	5	24	3
TAP	5	48	2
TAP	5	96	0
TAP	5	144	5
TAP	5	168	4
TAP	5	192	5
TAP	5	240	7
TAP	5	288	2
TAP	5	336	6
HLD	6	0	5	96
TAP	6	48	7
HLD	6	96	3	96
TAP	6	144	7
HLD	6	192	4	96
TAP	6	240	7
HLD	6	288	2	96
TAP	6	336	7
TAP	7	0	5
TAP	7	48	6
TAP	7	96	2
TAP	7	96	7
TAP	7	144	6
TAP	7	192	4
TAP	7	192	5
TAP	7	240	3
TAP	7	288	2
TAP	7	288	7
TAP	7	336	0
TAP	8	0	6
TAP	8	48	7
TAP	8	96	0
TAP	8	96	5
TAP	8	144	1
TAP	8	192	2
TAP	8	192	3
TAP	8	240	4
TAP	8	288	0
TAP	8	288	5
TAP	8	336	7
TAP	9	0	1
TAP	9	24	0
TAP	9	48	1
TAP	9	96	3
TAP	9	144	6
TAP	9	168	7
TAP	9	192	6
TAP	9	240	4
TAP	9	288	3
TAP	9	336	1
HLD	10	0	2	96
TAP	10	48	0
HLD	10	96	4	96
TAP	10	144	0
HLD	10	192	3	96
TAP	10	240	0
HLD	10	288	5	96
TAP	10	336	0
TAP	11	0	2
TAP	11	48	5
TAP	11	72	4
TAP	11	96	5
TAP	11	144	2
TAP	11	168	3
TAP	11	192	2
TAP	11	240	5
TAP	11	264	4
TAP	11	288	5
TAP	11	336	2
TAP	11	336	6
TAP	12	0	3
TAP	12	24	4
TAP	12	48	3
TAP	12	72	4
TAP	12	96	2
TAP	12	120	5
TAP	12	144	2
TAP	12	168	5
TAP	12	192	1
TAP	12	216	6
TAP	12	240	1
TAP	12	264	6
BRK	12	288	0
BRK	12	288	7
HLD	13	0	2	72
HLD	13	72	1	72
TAP	13	144	0
TAP	13	192	7
TAP	13	240	6
TAP	13	288	0
STR	13	336	7
SI_	13	336	7	96	48	3
STR	14	48	1
SI_	14	48	1	96	48	5
STR	14	144	6
SI_	14	144	6	96	48	2
TAP	14	240	0
TAP	14	288	0
HLD	15	0	5	72
HLD	15	72	6	72
TAP	15	144	7
TAP	15	192	0
TAP	15	240	1
TAP	15	288	7
STR	15	336	0
SI_	15	336	0	96	48	4
STR	16	48	6
SI_	16	48	6	96	48	2
STR	16	144	1
SI_	16	144	1	96	48	5
TAP	16	240	7
TAP	16	288	7
HLD	17	0	2	72
HLD	17	72	0	72
TAP	17	144	7
STR	17	192	7
SI_	17	192	7	96	48	2
SI_	17	192	7	96	48	4
HLD	18	0	5	72
HLD	18	72	7	72
TAP	18	144	0
STR	18	192	0
SI_	18	192	0	96	48	3
SI_	18	192	0	96	48	5
TAP	19	0	6
TAP	19	48	5
TAP	19	96	1
TAP	19	96	4
TAP	19	144	0
TAP	19	192	6
TAP	19	192	7
TAP	19	240	2
TAP	19	288	3
TAP	19	288	4
TAP	19	336	5
TAP	20	0	1
TAP	20	48	2
TAP	20	96	3
TAP	20	96	6
TAP	20	144	7
HLD	20	192	7	72
HLD	20	264	6	72
TAP	20	336	5
TAP	21	0	4
TAP	21	48	2
TAP	21	96	4
TAP	21	144	1
TAP	21	192	4
TAP	21	240	0
TAP	21	288	4
STR	21	336	1
SI_	21	336	1	96	48	5
STR	22	48	4
SI_	22	48	4	96	48	7
STR	22	144	0
SI_	22	144	0	96	48	3
TAP	22	240	6
TAP	22	288	6
TAP	23	0	3
TAP	23	48	5
TAP	23	96	3
TAP	23	144	6
TAP	23	192	3
TAP	23	240	7
TAP	23	288	3
STR	23	336	6
SI_	23	336	6	96	48	2
STR	24	48	3
SI_	24	48	3	96	48	0
STR	24	144	7
SI_	24	144	7	96	48	4
TAP	24	240	1
TAP	24	288	1
HLD	25	0	4	72
HLD	25	72	3	72
TAP	25	144	2
STR	25	192	2
SI_	25	192	2	96	48	5
SI_	25	192	2	96	48	7
HLD	26	0	3	72
HLD	26	72	4	72
TAP	26	144	5
STR	26	192	5
SI_	26	192	5	96	48	0
SI_	26	192	5	96	48	2
TAP	27	0	1
TAP	27	48	2
TAP	27	96	3
TAP	27	96	6
TAP	27	144	7
TAP	27	192	0
TAP	27	192	1
TAP	27	240	5
TAP	27	288	3
TAP	27	288	4
TAP	27	336	2
TAP	28	0	6
TAP	28	48	5
TAP	28	96	1
TAP	28	96	4
TAP	28	144	0
STR	28	192	6
SI_	28	192	6	96	48	2
STR	28	192	7
SI_	28	192	7	96	48	3
STR	29	0	0
SI_	29	0	0	96	48	3
TAP	29	48	4
STR	29	96	0
SI_	29	96	0	96	48	5
TAP	29	144	4
STR	29	192	0
SI_	29	192	0	96	48	3
TAP	29	240	4
STR	29	288	0
SI_	29	288	0	96	48	5
TAP	29	336	4
STR	30	0	0
SI_	30	0	0	96	48	3
TAP	30	48	4
TAP	30	96	0
TAP	30	144	4
TAP	30	192	0
TAP	30	240	0
TAP	30	336	3
STR	31	0	7
SI_	31	0	7	96	48	4
TAP	31	48	3
STR	31	96	7
SI_	31	96	7	96	48	2
TAP	31	144	3
STR	31	192	7
SI_	31	192	7	96	48	4
TAP	31	240	3
STR	31	288	7
SI_	31	288	7	96	48	2
TAP	31	336	3
TAP	32	0	7
TAP	32	48	3
TAP	32	96	7
TAP	32	144	3
TAP	32	192	3
TAP	32	192	7
BRK	32	288	1
BRK	32	288	5
STR	33	0	0
SI_	33	0	0	96	48	2
TAP	33	48	3
STR	33	96	0
SI_	33	96	0	96	48	4
TAP	33	144	4
STR	33	192	0
SI_	33	192	0	96	48	3
TAP	33	240	5
STR	33	288	0
SI_	33	288	0	96	48	5
TAP	33	336	6
STR	34	0	0
SI_	34	0	0	96	48	4
TAP	34	48	7
STR	34	96	0
SI_	34	96	0	96	48	3
TAP	34	144	6
STR	34	192	0
SCL	34	192	0	96	48	5
TAP	34	240	5
BRK	34	288	0
TAP	35	0	3
TAP	35	0	4
TAP	35	72	5
TAP	35	72	7
TAP	35	144	1
TAP	35	144	7
TAP	35	192	3
TAP	35	192	5
TAP	35	264	0
TAP	35	264	2
TAP	35	336	0
TAP	35	336	6
TAP	36	0	2
TAP	36	0	4
TAP	36	72	5
TAP	36	72	7
TAP	36	144	0
TAP	36	144	6
HLD	36	192	1	96
HLD	36	192	7	96
TAP	37	0	3
TAP	37	0	7
TAP	37	72	2
TAP	37	72	6
TAP	37	144	1
TAP	37	144	5
BST	37	192	1
SI_	37	192	1	96	48	4
BST	37	192	5
SI_	37	192	5	96	48	0
BRK	37	288	1
BRK	37	288	5
TAP	38	0	6
TAP	38	0	7
STR	38	48	6
SI_	38	48	6	96	48	2
TAP	38	48	7
TAP	38	96	0
TAP	38	96	5
TAP	38	144	6
TAP	38	144	7
TAP	38	192	0
STR	38	240	0
SI_	38	240	0	96	48	4
TAP	38	336	0
HLD	38	336	7	96
TAP	39	48	2
STR	39	96	3
SCL	39	96	3	96	48	0
STR	39	96	7
SCL	39	96	7	96	48	4
TAP	39	192	3
TAP	39	192	7
TAP	39	288	6
TAP	39	288	7
TAP	40	0	0
TAP	40	0	1
TAP	40	48	0
STR	40	48	1
SI_	40	48	1	96	48	5
TAP	40	96	2
TAP	40	96	7
TAP	40	144	0
TAP	40	144	1
TAP	40	192	7
STR	40	240	7
SI_	40	240	7	96	48	3
HLD	40	336	0	96
TAP	40	336	7
TAP	41	48	5
STR	41	96	0
SCR	41	96	0	96	48	3
STR	41	96	4
SCR	41	96	4	96	48	7
TAP	41	192	0
TAP	41	192	4
TAP	41	288	0
TAP	41	288	1
TAP	42	0	6
TAP	42	0	7
STR	42	48	6
SCL	42	48	6	96	48	3
TAP	42	48	7
TAP	42	96	0
TAP	42	96	5
TAP	42	144	6
TAP	42	144	7
TAP	42	192	1
STR	42	240	1
SI_	42	240	1	96	48	4
TAP	42	336	1
TAP	42	336	7
TAP	43	48	0
TAP	43	48	6
TAP	43	96	0
STR	43	96	6
SI_	43	96	6	96	48	2
TAP	43	192	1
TAP	43	192	6
BRK	43	288	0
BRK	43	288	7
TAP	44	0	4
TAP	44	0	6
TAP	44	72	1
TAP	44	72	3
TAP	44	144	2
TAP	44	144	7
TAP	44	240	1
TAP	44	240	3
TAP	44	312	4
TAP	44	312	6
TAP	45	0	0
TAP	45	0	5
TAP	45	48	6
TAP	45	96	1
TAP	45	96	7
BST	45	192	6
SI_	45	192	6	96	48	3
BST	45	192	7
SI_	45	192	7	96	48	2
BRK	45	288	6
BRK	45	288	7
TAP	46	0	0
TAP	46	0	1
TAP	46	48	0
STR	46	48	1
SI_	46	48	1	96	48	5
TAP	46	96	2
TAP	46	96	7
TAP	46	144	0
TAP	46	144	1
TAP	46	192	7
STR	46	240	7
SI_	46	240	7	96	48	3
HLD	46	336	0	96
TAP	46	336	7
TAP	47	48	5
STR	47	96	0
SCR	47	96	0	96	48	3
STR	47	96	4
SCR	47	96	4	96	48	7
TAP	47	192	0
TAP	47	192	4
TAP	47	288	0
TAP	47	288	1
TAP	48	0	6
TAP	48	0	7
STR	48	48	6
SI_	48	48	6	96	48	2
TAP	48	48	7
TAP	48	96	0
TAP	48	96	5
TAP	48	144	6
TAP	48	144	7
TAP	48	192	0
STR	48	240	0
SI_	48	240	0	96	48	4
TAP	48	336	0
HLD	48	336	7	96
TAP	49	48	2
STR	49	96	3
SCL	49	96	3	96	48	0
STR	49	96	7
SCL	49	96	7	96	48	4
TAP	49	192	3
TAP	49	192	7
TAP	49	288	6
TAP	49	288	7
TAP	50	0	0
TAP	50	0	1
TAP	50	48	0
STR	50	48	1
SCR	50	48	1	96	48	4
TAP	50	96	2
TAP	50	96	7
TAP	50	144	0
TAP	50	144	1
TAP	50	192	6
STR	50	240	6
SI_	50	240	6	96	48	3
TAP	50	336	0
TAP	50	336	6
TAP	51	0	1
TAP	51	48	1
TAP	51	96	2
TAP	51	96	5
TAP	51	144	2
TAP	51	144	5
TAP	51	192	3
TAP	51	192	4
TAP	51	240	3
TAP	51	240	4
TAP	51	288	1
TAP	51	288	6
TAP	51	336	1
TAP	51	336	6
TAP	52	0	0
TAP	52	0	5
TAP	52	72	3
TAP	52	72	7
TAP	52	144	4
TAP	52	144	5
TAP	52	192	2
TAP	52	192	7
TAP	52	264	0
TAP	52	264	4
TAP	52	336	2
TAP	52	336	3
TAP	53	0	4
TAP	53	0	5
TAP	53	48	6
TAP	53	96	0
TAP	53	96	7
TAP	53	144	2
BST	53	192	1
SI_	53	192	1	96	48	4
BST	53	192	5
SI_	53	192	5	96	48	0
BRK	53	288	1
BRK	53	288	5
TAP	54	0	0
STR	54	0	7
SSR	54	0	7	96	72	3
STR	54	288	0
SSL	54	288	0	96	72	4
TAP	54	288	7
HLD	55	192	1	72
HLD	55	264	2	72
TAP	55	336	3
HLD	56	0	6	72
HLD	56	72	5	72
TAP	56	144	4
BST	56	192	1
SI_	56	192	1	96	48	5
TAP	56	256	0
TAP	56	288	0
TAP	56	288	1
STR	57	0	6
SI_	57	0	6	96	48	2
TAP	57	64	7
TAP	57	96	6
TAP	57	96	7
STR	57	192	0
SI_	57	192	0	96	48	4
TAP	57	256	7
TAP	57	288	0
TAP	57	288	7
STR	58	0	7
SI_	58	0	7	96	48	3
TAP	58	64	0
TAP	58	96	0
TAP	58	96	7
BST	58	192	0
SI_	58	192	0	96	48	3
BRK	58	192	1
TAP	58	256	1
TAP	58	288	0
TAP	58	288	1
TAP	59	0	6
STR	59	0	7
SI_	59	0	7	96	48	4
TAP	59	64	6
TAP	59	96	6
TAP	59	96	7
STR	59	192	0
SI_	59	192	0	96	48	4
TAP	59	192	1
TAP	59	256	1
TAP	59	288	0
TAP	59	288	1
TAP	60	0	6
STR	60	0	7
SI_	60	0	7	96	48	3
TAP	60	64	6
TAP	60	96	6
TAP	60	96	7
BST	60	192	1
SI_	60	192	1	96	48	5
BRK	60	192	7
TAP	60	256	6
TAP	60	288	1
TAP	60	288	6
TAP	61	0	0
STR	61	0	6
SI_	61	0	6	96	48	2
TAP	61	64	1
TAP	61	96	1
TAP	61	96	6
STR	61	192	0
SI_	61	192	0	96	48	4
TAP	61	192	5
TAP	61	256	7
TAP	61	288	0
TAP	61	288	7
TAP	62	0	2
STR	62	0	7
SI_	62	0	7	96	48	3
TAP	62	64	0
TAP	62	96	0
TAP	62	96	7
BST	62	192	0
SCR	62	192	0	96	48	3
BRK	62	192	4
TAP	62	256	7
TAP	62	288	0
TAP	62	288	7
TAP	63	0	3
STR	63	0	7
SCL	63	0	7	96	48	4
TAP	63	64	0
TAP	63	96	0
TAP	63	96	7
STR	63	192	1
SCR	63	192	1	96	48	4
TAP	63	192	5
TAP	63	256	0
TAP	63	288	0
TAP	63	288	1
TAP	64	0	2
STR	64	0	6
SCL	64	0	6	96	48	3
TAP	64	64	7
TAP	64	96	6
TAP	64	96	7
BRK	64	192	1
BRK	64	192	6
STR	64	288	7
SI_	64	288	7	96	48	3
TAP	64	352	2
STR	65	0	2
SI_	65	0	2	96	48	6
TAP	65	64	5
STR	65	96	5
SI_	65	96	5	96	48	3
TAP	65	160	0
STR	65	192	0
SI_	65	192	0	96	48	4
TAP	65	256	5
STR	65	288	5
SI_	65	288	5	96	48	1
TAP	65	352	2
STR	66	0	2
SI_	66	0	2	96	48	7
TAP	66	64	7
TAP	66	96	7
BRK	66	192	1
BRK	66	192	6
STR	66	288	0
SI_	66	288	0	96	48	4
TAP	66	352	5
STR	67	0	5
SI_	67	0	5	96	48	1
TAP	67	64	2
STR	67	96	2
SI_	67	96	2	96	48	4
TAP	67	160	7
STR	67	192	7
SI_	67	192	7	96	48	3
TAP	67	256	2
STR	67	288	2
SI_	67	288	2	96	48	6
TAP	67	352	5
STR	68	0	5
SI_	68	0	5	96	48	0
TAP	68	64	0
TAP	68	96	0
BRK	68	192	1
BRK	68	192	6
TAP	68	288	2
TAP	68	320	3
TAP	68	352	1
TAP	69	0	5
TAP	69	32	4
TAP	69	64	6
TAP	69	96	1
TAP	69	128	0
TAP	69	160	2
TAP	69	192	6
TAP	69	224	7
TAP	69	256	5
TAP	69	288	0
TAP	69	320	7
TAP	69	352	1
TAP	70	0	5
TAP	70	32	4
TAP	70	64	6
BRK	70	96	0
BRK	70	192	1
BRK	70	192	6
TAP	70	288	5
TAP	70	320	4
TAP	70	352	6
TAP	71	0	2
TAP	71	32	3
TAP	71	64	1
TAP	71	96	6
TAP	71	128	7
TAP	71	160	5
TAP	71	192	1
TAP	71	224	0
TAP	71	256	2
TAP	71	288	7
TAP	71	320	0
TAP	71	352	6
BST	72	0	0
SF_	72	0	0	96	48	4
BRK	72	96	0
TAP	72	192	2
TAP	72	216	3
TAP	72	240	2
TAP	72	288	1
TAP	72	288	4
TAP	72	336	6
TAP	72	360	7
TAP	73	0	6
TAP	73	48	0
TAP	73	48	5
TAP	73	96	3
TAP	73	120	4
TAP	73	144	3
TAP	73	192	6
TAP	73	216	7
TAP	73	240	6
TAP	73	264	0
TAP	73	288	6
TAP	73	312	1
TAP	73	336	6
TAP	73	360	2
TAP	74	0	6
TAP	74	24	3
TAP	74	48	6
TAP	74	72	4
TAP	74	96	6
TAP	74	144	2
STR	74	192	1
SI_	74	192	1	96	48	5
TAP	74	216	0
TAP	74	240	1
TAP	74	264	0
TAP	74	288	1
STR	74	336	6
SI_	74	336	6	96	48	2
TAP	74	360	7
TAP	75	0	6
TAP	75	24	7
TAP	75	48	6
TAP	75	144	3
TAP	75	192	1
TAP	75	216	0
TAP	75	240	1
TAP	75	264	7
TAP	75	288	1
TAP	75	312	6
TAP	75	336	1
TAP	75	360	5
TAP	76	0	1
TAP	76	24	4
TAP	76	48	1
TAP	76	72	3
TAP	76	96	1
TAP	76	144	6
TAP	76	192	1
TAP	76	216	0
TAP	76	240	3
TAP	76	288	6
TAP	76	312	7
TAP	76	336	4
TAP	77	0	2
TAP	77	24	3
TAP	77	48	0
TAP	77	96	5
TAP	77	120	4
TAP	77	144	7
TAP	77	192	2
TAP	77	216	3
TAP	77	240	2
TAP	77	264	3
TAP	77	288	1
TAP	77	312	4
TAP	77	336	1
TAP	77	360	4
TAP	78	0	0
TAP	78	48	4
TAP	78	48	5
TAP	78	96	2
TAP	78	96	7
TAP	78	144	1
TAP	78	144	5
TAP	78	192	2
TAP	78	216	3
TAP	78	240	0
TAP	78	288	6
TAP	78	288	7
TAP	78	336	5
TAP	78	360	4
TAP	79	0	7
TAP	79	48	0
TAP	79	48	1
TAP	79	96	0
TAP	79	120	7
TAP	79	144	0
TAP	79	168	7
TAP	79	192	0
TAP	79	204	1
TAP	79	216	2
TAP	79	228	3
TAP	79	240	4
TAP	79	252	5
TAP	79	264	6
TAP	79	276	7
TAP	79	288	0
TAP	79	300	1
TAP	79	312	2
TAP	79	324	3
TAP	79	336	4
TAP	79	348	5
TAP	79	360	6
TAP	79	372	7
BST	80	0	0
SF_	80	0	0	96	48	4
BRK	80	96	0
BRK	80	192	2
BRK	80	192	6
TAP	81	144	0
TAP	81	144	7
TAP	82	48	5
TAP	82	48	7
TAP	82	120	0
TAP	82	120	2
TAP	82	192	3
TAP	82	192	4
HLD	83	144	6	144
HLD	83	144	7	144
TAP	84	0	2
TAP	84	0	3
TAP	84	48	2
TAP	84	48	3
TAP	84	96	0
TAP	84	96	5
STR	84	192	0
SI_	84	192	0	96	48	4
TAP	84	240	1
TAP	84	240	7
TAP	84	288	0
STR	84	336	7
SI_	84	336	7	96	48	3
TAP	85	0	0
TAP	85	0	6
TAP	85	48	7
HLD	85	144	1	240
TAP	85	240	3
TAP	85	288	4
TAP	85	336	5
STR	86	0	5
SCR	86	0	5	96	48	2
TAP	86	192	0
TAP	86	192	7
HLD	87	48	3	48
HLD	87	48	7	48
HLD	87	120	2	48
HLD	87	120	6	48
TAP	87	192	1
TAP	87	192	5
TAP	87	240	4
TAP	87	264	3
TAP	87	288	4
TAP	87	312	3
TAP	87	336	4
TAP	87	360	3
STR	88	0	2
SI_	88	0	2	96	48	7
STR	88	0	6
SI_	88	0	6	96	48	3
TAP	88	96	2
TAP	88	96	6
TAP	88	192	4
TAP	88	192	5
STR	88	240	4
SI_	88	240	4	96	48	0
TAP	88	240	5
TAP	88	288	3
TAP	88	288	6
TAP	88	336	4
TAP	88	336	5
TAP	89	0	6
STR	89	48	6
SI_	89	48	6	96	48	2
HLD	89	144	1	96
TAP	89	144	6
TAP	89	240	5
STR	89	288	2
SCL	89	288	2	96	48	7
STR	89	288	6
SCL	89	288	6	96	48	3
TAP	90	0	2
TAP	90	0	6
TAP	90	96	0
TAP	90	96	1
TAP	90	192	2
TAP	90	192	3
TAP	90	240	2
STR	90	240	3
SI_	90	240	3	96	48	7
TAP	90	288	1
TAP	90	288	4
TAP	90	336	2
TAP	90	336	3
TAP	91	0	1
STR	91	48	1
SI_	91	48	1	96	48	5
TAP	91	144	1
HLD	91	144	6	96
TAP	91	240	2
STR	91	288	1
SCR	91	288	1	96	48	4
STR	91	288	5
SCR	91	288	5	96	48	0
TAP	92	0	1
TAP	92	0	5
TAP	92	96	6
TAP	92	96	7
TAP	92	192	4
TAP	92	192	5
TAP	92	240	4
STR	92	240	5
SCR	92	240	5	96	48	0
TAP	92	288	3
TAP	92	288	6
TAP	92	336	4
TAP	92	336	5
TAP	93	0	1
STR	93	48	1
SI_	93	48	1	96	48	5
TAP	93	144	1
TAP	93	144	6
TAP	93	192	7
TAP	93	240	7
TAP	93	288	0
TAP	93	288	1
TAP	93	336	0
TAP	93	336	1
TAP	94	0	2
TAP	94	0	3
TAP	94	48	2
TAP	94	48	3
TAP	94	96	1
TAP	94	96	6
TAP	94	144	1
TAP	94	144	6
TAP	94	192	2
TAP	94	192	7
TAP	94	264	0
TAP	94	264	4
TAP	94	336	2
TAP	94	336	3
TAP	95	0	0
TAP	95	0	5
TAP	95	72	3
TAP	95	72	7
TAP	95	144	4
TAP	95	144	5
BST	95	192	2
SI_	95	192	2	96	48	7
BST	95	192	6
SI_	95	192	6	96	48	3
BRK	95	288	2
BRK	95	288	6
BRK	96	0	1
BRK	96	0	5
BST	96	96	0
SI_	96	96	0	96	48	4
BST	96	96	7
SI_	96	96	7	96	48	5
BST	96	192	0
SI_	96	192	0	96	48	2
BST	96	192	7
SI_	96	192	7	96	48	3
BRK	96	288	0
BRK	96	288	7
BRK	97	0	0
BRK	97	0	7
BST	97	96	1
SCR	97	96	1	96	288	7
BST	97	96	6
SCL	97	96	6	96	288	0
BRK	97	192	1
BRK	97	192	6
TAP	98	192	2
TAP	98	240	3
TAP	98	288	1
TAP	98	288	4
TAP	98	336	5
TAP	99	0	6
TAP	99	0	7
TAP	99	48	4
TAP	99	48	5
TAP	99	96	2
TAP	99	96	6
TAP	99	144	3
TAP	99	192	7
TAP	99	208	6
TAP	99	224	5
TAP	99	240	4
TAP	99	288	0
TAP	99	336	0
TAP	99	352	1
TAP	99	368	2
TAP	100	0	3
TAP	100	48	7
TAP	100	96	2
TAP	100	96	3
TAP	100	144	6
HLD	100	192	5	96
TAP	100	240	7
HLD	100	288	3	96
TAP	100	336	7
HLD	101	0	4	96
TAP	101	48	7
HLD	101	96	2	96
TAP	101	144	7
TAP	101	192	5
TAP	101	240	6
TAP	101	288	2
TAP	101	288	7
TAP	101	336	6
TAP	102	0	4
TAP	102	0	5
TAP	102	48	6
TAP	102	48	7
TAP	102	96	0
TAP	102	96	5
TAP	102	144	1
TAP	102	192	6
TAP	102	240	7
TAP	102	288	0
TAP	102	288	5
TAP	102	336	1
TAP	103	0	2
TAP	103	0	3
TAP	103	48	0
TAP	103	48	1
TAP	103	96	3
TAP	103	96	7
TAP	103	144	0
TAP	103	192	0
TAP	103	208	1
TAP	103	224	2
TAP	103	240	3
TAP	103	288	7
TAP	103	336	7
TAP	103	352	6
TAP	103	368	5
TAP	104	0	4
TAP	104	48	0
TAP	104	96	4
TAP	104	96	5
TAP	104	144	0
HLD	104	192	2	96
TAP	104	240	0
HLD	104	288	4	96
TAP	104	336	0
HLD	105	0	3	96
TAP	105	48	0
TAP	105	96	5
TAP	105	144	0
STR	105	192	0
SUL	105	192	0	96	432	6
STR	105	192	4
SUL	105	192	4	96	432	2
BRK	107	48	1
BRK	107	48	5

T_REC_TAP	735
T_REC_BRK	43
T_REC_XTP	0
T_REC_HLD	48
T_REC_XHO	0
T_REC_STR	100
T_REC_BST	20
T_REC_XST	0
T_REC_TTP	0
T_REC_THO	0
T_REC_SLD	124
T_REC_ALL	1070
T_NUM_TAP	835
T_NUM_BRK	63
T_NUM_HLD	48
T_NUM_SLD	124
T_NUM_ALL	1070
T_JUDGE_TAP	898
T_JUDGE_HLD	97
T_JUDGE_SLD	124
T_JUDGE_ALL	1119
TTM_EACHPAIRS	232
TTM_SCR_TAP	417500
TTM_SCR_BRK	163800
TTM_SCR_HLD	48000
TTM_SCR_SLD	186000
TTM_SCR_ALL	815300
TTM_SCR_S	784750
TTM_SCR_SS	809000
TTM_RAT_ACV	10077

