VERSION	0.00.00	1.03.00
FES_MODE	0
BPM_DEF	181.000	181.000	181.000	181.000
MET_DEF	4	4
RESOLUTION	384
CLK_DEF	384
COMPATIBLE_CODE	MA2

BPM	0	0	181.000
MET	0	0	4	4
MET	54	0	4	3
MET	55	192	4	4

TAP	2	0	4
TAP	2	48	4
TAP	2	96	3
TAP	2	144	3
TAP	2	192	4
TAP	2	288	2
TAP	2	288	5
TAP	3	0	6
TAP	3	48	6
TAP	3	96	7
TAP	3	192	4
HLD	3	192	5	96
TAP	3	288	2
TAP	4	0	1
TAP	4	48	1
TAP	4	96	0
HLD	4	192	2	96
TAP	4	192	3
TAP	4	288	5
TAP	5	0	4
TAP	5	48	4
TAP	5	96	3
TAP	5	192	3
TAP	5	240	4
TAP	5	288	2
STR	5	288	5
SCR	5	288	5	96	96	2
TAP	6	192	0
TAP	6	192	1
TAP	6	288	3
TAP	6	288	6
TAP	7	0	1
TAP	7	48	1
TAP	7	96	0
HLD	7	192	2	96
TAP	7	192	3
TAP	7	288	5
TAP	8	0	6
TAP	8	48	6
TAP	8	96	7
TAP	8	192	4
HLD	8	192	5	96
TAP	8	288	2
TAP	9	0	4
TAP	9	48	4
TAP	9	96	3
TAP	9	192	3
TAP	9	240	4
TAP	9	288	2
STR	9	288	5
SCR	9	288	5	96	96	2
TAP	10	192	0
TAP	10	192	1
TAP	10	288	3
TAP	10	288	6
HLD	11	0	2	96
TAP	11	0	3
TAP	11	96	4
TAP	11	192	4
HLD	11	192	5	96
TAP	11	288	3
TAP	12	0	0
STR	12	0	7
SCL	12	0	7	96	192	0
TAP	13	0	3
HLD	13	0	5	288
TAP	13	96	4
TAP	13	192	3
TAP	13	240	3
TAP	13	288	2
STR	14	0	2
SCL	14	0	2	96	96	7
STR	14	0	3
SCR	14	0	3	96	96	6
TAP	14	288	4
TAP	14	288	5
HLD	15	0	2	288
TAP	15	0	4
TAP	15	96	3
TAP	15	192	4
TAP	15	240	4
STR	15	288	5
SSR	15	288	5	96	192	1
TAP	16	288	3
TAP	16	288	4
TAP	17	0	4
TAP	17	0	6
TAP	17	96	7
TAP	17	192	1
TAP	17	192	3
TAP	17	288	0
STR	18	0	3
SI_	18	0	3	96	96	0
STR	18	0	4
SI_	18	0	4	96	96	7
TAP	18	288	1
TAP	18	288	6
TAP	19	0	4
HLD	19	0	5	96
TAP	19	96	0
HLD	19	192	2	96
TAP	19	192	3
TAP	19	288	7
TAP	20	0	4
HLD	20	0	5	96
TAP	20	96	0
TAP	20	192	0
TAP	20	192	7
TAP	20	288	3
TAP	20	288	4
HLD	21	0	2	288
TAP	21	0	4
TAP	21	96	0
TAP	21	192	3
TAP	21	240	3
TAP	21	288	4
STR	22	0	4
SCL	22	0	4	96	96	1
STR	22	0	5
SCR	22	0	5	96	96	0
TAP	22	288	2
TAP	22	288	3
TAP	23	0	3
HLD	23	0	5	288
TAP	23	96	7
TAP	23	192	4
TAP	23	240	4
TAP	23	288	3
STR	24	0	6
SI_	24	0	6	96	96	3
STR	24	0	7
SI_	24	0	7	96	96	2
TAP	24	288	3
TAP	24	288	4
TAP	25	0	1
TAP	25	0	3
TAP	25	96	0
TAP	25	192	4
TAP	25	192	6
TAP	25	288	7
STR	26	0	1
SI_	26	0	1	96	96	6
STR	26	0	5
SI_	26	0	5	96	96	2
TAP	26	288	1
TAP	26	288	6
HLD	27	0	2	96
TAP	27	0	3
TAP	27	96	7
TAP	27	192	4
HLD	27	192	5	96
TAP	27	288	0
HLD	28	0	2	96
TAP	28	0	3
TAP	28	96	7
TAP	28	192	0
TAP	28	192	7
TAP	28	288	2
TAP	28	288	5
TAP	29	0	3
HLD	29	0	4	192
TAP	29	96	5
HLD	29	192	3	192
TAP	29	288	2
HLD	30	0	4	192
TAP	30	96	6
HLD	30	192	3	192
TAP	30	288	1
HLD	31	0	7	192
TAP	31	96	6
HLD	31	192	0	192
TAP	31	288	1
HLD	32	0	7	192
TAP	32	96	5
TAP	32	192	0
TAP	32	288	1
TAP	32	288	6
HLD	33	0	3	192
TAP	33	0	4
TAP	33	96	1
HLD	33	192	4	192
TAP	33	288	6
TAP	34	0	3
TAP	34	96	2
TAP	34	96	5
TAP	34	192	1
TAP	34	192	6
TAP	34	288	0
TAP	34	288	7
HLD	35	0	1	72
HLD	35	72	2	72
TAP	35	144	3
HLD	35	192	6	72
HLD	35	264	5	72
TAP	35	336	4
HLD	36	0	1	72
HLD	36	72	2	72
TAP	36	144	3
TAP	36	192	6
TAP	36	288	3
TAP	36	288	4
TAP	37	0	0
TAP	37	0	7
TAP	37	72	0
TAP	37	72	7
TAP	37	144	0
TAP	37	144	7
BRK	37	192	1
BRK	37	192	6
STR	38	0	3
SCL	38	0	3	96	48	0
STR	38	0	7
SCL	38	0	7	96	48	4
TAP	38	192	1
TAP	38	192	5
TAP	38	240	1
TAP	38	240	5
TAP	38	336	2
HLD	38	336	3	144
TAP	39	48	0
STR	39	96	0
SI_	39	96	0	96	48	4
TAP	39	192	7
TAP	39	288	0
TAP	39	288	7
STR	40	0	0
SCR	40	0	0	96	48	3
STR	40	0	4
SCR	40	0	4	96	48	7
TAP	40	192	2
TAP	40	192	6
TAP	40	240	2
TAP	40	240	6
HLD	40	336	4	144
TAP	40	336	5
TAP	41	48	7
STR	41	96	7
SI_	41	96	7	96	48	3
TAP	41	192	0
TAP	41	288	0
TAP	41	288	7
TAP	42	0	3
TAP	42	48	4
TAP	42	96	5
TAP	42	144	4
TAP	42	192	3
TAP	42	240	2
HLD	42	336	7	96
TAP	43	48	0
TAP	43	96	0
TAP	43	144	6
TAP	43	192	6
TAP	43	240	2
TAP	43	288	2
TAP	43	336	4
HLD	44	0	4	72
HLD	44	72	6	72
TAP	44	144	7
TAP	44	192	7
HLD	44	240	0	72
HLD	44	312	2	72
TAP	45	0	3
HLD	45	96	2	96
TAP	45	96	3
STR	45	192	7
SI_	45	192	7	96	48	3
TAP	45	288	0
STR	46	0	0
SCR	46	0	0	96	48	3
STR	46	0	4
SCR	46	0	4	96	48	7
TAP	46	192	2
TAP	46	192	6
TAP	46	240	2
TAP	46	240	6
HLD	46	336	4	144
TAP	46	336	5
TAP	47	48	7
STR	47	96	7
SI_	47	96	7	96	48	3
TAP	47	192	0
TAP	47	288	0
TAP	47	288	7
STR	48	0	3
SCL	48	0	3	96	48	0
STR	48	0	7
SCL	48	0	7	96	48	4
TAP	48	192	1
TAP	48	192	5
TAP	48	240	1
TAP	48	240	5
TAP	48	336	2
HLD	48	336	3	144
TAP	49	48	0
STR	49	96	0
SI_	49	96	0	96	48	4
TAP	49	192	7
TAP	49	288	0
TAP	49	288	7
TAP	50	0	5
TAP	50	48	4
TAP	50	96	3
TAP	50	144	2
TAP	50	192	3
TAP	50	240	4
TAP	50	336	0
TAP	51	0	0
TAP	51	48	6
TAP	51	96	6
TAP	51	144	2
TAP	51	192	2
TAP	51	240	4
TAP	51	288	4
HLD	52	0	0	72
HLD	52	72	1	72
TAP	52	144	2
HLD	52	192	7	72
HLD	52	264	6	72
TAP	52	336	5
TAP	53	0	0
STR	53	96	3
SCL	53	96	3	96	96	0
STR	53	96	4
SCR	53	96	4	96	96	7
BST	54	0	1
SI_	54	0	1	96	48	5
BRK	54	0	6
TAP	54	288	1
STR	54	288	6
SI_	54	288	6	96	48	2
STR	55	192	0
SCR	55	192	0	96	96	3
STR	55	192	7
SCL	55	192	7	96	96	4
TAP	56	96	3
TAP	56	96	4
TAP	56	192	2
HLD	56	192	7	192
TAP	56	288	6
HLD	57	0	5	192
TAP	57	96	4
HLD	57	192	3	192
TAP	57	288	2
HLD	58	0	1	96
TAP	58	96	0
HLD	58	192	0	192
TAP	58	192	5
TAP	58	288	1
HLD	59	0	2	192
TAP	59	96	3
HLD	59	192	4	192
TAP	59	288	5
HLD	60	0	6	96
TAP	60	96	7
HLD	60	192	3	192
TAP	60	192	6
TAP	60	288	2
HLD	61	0	1	192
TAP	61	96	0
HLD	61	192	7	192
TAP	61	288	6
HLD	62	0	5	96
TAP	62	96	4
TAP	62	192	1
HLD	62	192	4	192
TAP	62	288	5
HLD	63	0	6	192
TAP	63	96	7
HLD	63	192	0	192
TAP	63	288	1
HLD	64	0	2	96
TAP	64	96	3
HLD	64	192	0	192
TAP	64	192	5
TAP	64	288	1
TAP	64	352	2
HLD	65	0	2	192
TAP	65	96	3
TAP	65	160	4
HLD	65	192	4	192
TAP	65	288	5
TAP	65	352	6
HLD	66	0	6	96
TAP	66	96	7
TAP	66	192	2
HLD	66	192	7	192
TAP	66	288	6
TAP	66	352	5
HLD	67	0	5	192
TAP	67	96	4
TAP	67	160	3
HLD	67	192	3	192
TAP	67	288	2
TAP	67	352	1
HLD	68	0	1	96
TAP	68	96	0
TAP	68	192	1
HLD	68	192	4	192
TAP	68	288	5
TAP	68	352	6
HLD	69	0	6	192
TAP	69	96	7
TAP	69	160	0
HLD	69	192	0	192
TAP	69	288	1
TAP	69	352	2
HLD	70	0	2	96
TAP	70	96	3
HLD	70	192	3	192
TAP	70	192	6
TAP	70	288	2
TAP	70	352	1
HLD	71	0	1	192
TAP	71	96	0
TAP	71	160	7
HLD	71	192	7	192
TAP	71	288	6
TAP	71	352	5
HLD	72	0	5	96
TAP	72	96	4
BRK	72	192	0
BRK	72	192	7
TAP	72	288	2
TAP	72	288	5
TAP	73	0	6
TAP	73	48	6
TAP	73	96	7
TAP	73	192	1
TAP	73	240	1
TAP	73	288	0
TAP	74	0	3
TAP	74	0	5
TAP	74	48	3
TAP	74	96	2
TAP	74	96	4
TAP	74	192	5
TAP	74	240	5
TAP	74	288	4
TAP	74	336	5
TAP	75	0	2
TAP	75	48	2
TAP	75	96	3
TAP	75	144	2
TAP	75	192	5
TAP	75	240	5
TAP	75	288	4
TAP	75	336	6
TAP	76	0	2
TAP	76	48	2
TAP	76	96	3
TAP	76	144	1
TAP	76	192	6
TAP	76	240	6
TAP	76	288	7
TAP	76	336	6
TAP	77	0	1
TAP	77	48	1
TAP	77	96	0
TAP	77	144	1
TAP	77	192	6
TAP	77	240	6
TAP	77	288	7
TAP	77	336	5
TAP	78	0	1
TAP	78	48	1
TAP	78	96	0
BRK	78	192	4
BRK	78	192	6
BRK	78	336	1
BRK	78	336	3
BST	79	96	3
SCL	79	96	3	96	192	0
BST	79	96	4
SCR	79	96	4	96	192	7
HLD	80	192	0	288
HLD	80	192	4	288
TAP	81	144	0
TAP	81	144	4
TAP	81	240	2
TAP	81	240	6
STR	81	288	2
SI_	81	288	2	96	48	7
STR	81	288	6
SI_	81	288	6	96	48	3
TAP	82	96	1
TAP	82	96	5
HLD	82	192	3	288
HLD	82	192	7	288
TAP	83	144	3
TAP	83	144	7
TAP	83	240	1
TAP	83	240	5
STR	83	288	1
SI_	83	288	1	96	48	4
STR	83	288	5
SI_	83	288	5	96	48	0
TAP	84	96	2
TAP	84	96	6
TAP	84	192	1
TAP	84	240	0
TAP	84	288	7
TAP	84	336	6
TAP	85	0	7
TAP	85	48	0
HLD	85	144	3	96
TAP	85	240	4
TAP	85	288	4
TAP	85	336	2
TAP	86	0	2
TAP	86	48	6
TAP	86	96	6
TAP	86	144	0
BRK	86	192	0
BRK	87	48	4
BRK	87	48	6
BRK	87	120	1
BRK	87	120	3
BRK	87	192	2
HLD	87	192	5	192
STR	88	0	0
SI_	88	0	0	96	48	4
TAP	88	96	7
STR	88	192	2
SCL	88	192	2	96	48	7
STR	88	192	6
SCL	88	192	6	96	48	3
TAP	89	0	0
TAP	89	0	4
TAP	89	48	0
TAP	89	48	4
TAP	89	144	2
HLD	89	144	3	144
TAP	89	240	1
STR	89	288	1
SI_	89	288	1	96	48	5
TAP	90	0	7
TAP	90	96	0
TAP	90	96	7
STR	90	192	1
SCR	90	192	1	96	48	4
STR	90	192	5
SCR	90	192	5	96	48	0
TAP	91	0	3
TAP	91	0	7
TAP	91	48	3
TAP	91	48	7
HLD	91	144	4	144
TAP	91	144	5
TAP	91	240	6
STR	91	288	6
SI_	91	288	6	96	48	2
TAP	92	0	0
TAP	92	96	0
TAP	92	96	7
TAP	92	192	6
TAP	92	240	7
TAP	92	288	0
TAP	92	336	1
TAP	93	0	0
TAP	93	48	7
TAP	93	144	3
TAP	93	192	3
TAP	93	240	5
TAP	93	288	5
TAP	93	336	1
TAP	94	0	1
TAP	94	48	7
TAP	94	96	7
HLD	94	192	3	72
HLD	94	264	2	72
TAP	94	336	1
HLD	95	0	4	72
HLD	95	72	5	72
TAP	95	144	6
TAP	95	192	3
TAP	95	288	6
TAP	95	288	7
TAP	96	0	0
TAP	96	0	5
TAP	96	96	3
TAP	96	96	4
TAP	96	192	0
TAP	96	192	1
STR	96	288	4
SCL	96	288	4	96	96	1
STR	96	288	5
SCR	96	288	5	96	96	0
BRK	97	192	2
BRK	97	192	7
TAP	97	288	3
TAP	97	288	4
HLD	98	0	2	96
TAP	98	0	3
TAP	98	48	4
TAP	98	96	5
TAP	98	192	6
TAP	98	240	6
TAP	98	288	7
TAP	99	0	4
HLD	99	0	5	96
TAP	99	48	3
TAP	99	96	2
TAP	99	192	3
TAP	99	240	3
TAP	99	288	4
TAP	99	336	4
TAP	100	0	3
TAP	100	48	4
STR	100	96	2
SCL	100	96	2	96	96	5
TAP	100	96	5
TAP	101	0	6
TAP	101	0	7
TAP	101	96	1
TAP	101	96	4
TAP	101	192	6
TAP	101	240	6
TAP	101	288	7
TAP	102	0	4
HLD	102	0	5	96
TAP	102	48	3
TAP	102	96	2
TAP	102	192	1
TAP	102	240	1
TAP	102	288	0
HLD	103	0	2	96
TAP	103	0	3
TAP	103	48	4
TAP	103	96	5
TAP	103	192	3
TAP	103	240	3
TAP	103	288	4
TAP	103	336	4
TAP	104	0	3
TAP	104	48	4
STR	104	96	2
SCL	104	96	2	96	96	5
TAP	104	96	5
TAP	105	0	6
TAP	105	0	7
TAP	105	96	1
TAP	105	96	4
HLD	105	192	4	528
TAP	105	192	5
STR	106	336	7
SI_	106	336	7	96	48	3
BRK	107	48	0

T_REC_TAP	433
T_REC_BRK	18
T_REC_XTP	0
T_REC_HLD	94
T_REC_XHO	0
T_REC_STR	48
T_REC_BST	3
T_REC_XST	0
T_REC_TTP	0
T_REC_THO	0
T_REC_SLD	51
T_REC_ALL	647
T_NUM_TAP	481
T_NUM_BRK	21
T_NUM_HLD	94
T_NUM_SLD	51
T_NUM_ALL	647
T_JUDGE_TAP	502
T_JUDGE_HLD	303
T_JUDGE_SLD	51
T_JUDGE_ALL	856
TTM_EACHPAIRS	136
TTM_SCR_TAP	240500
TTM_SCR_BRK	54600
TTM_SCR_HLD	94000
TTM_SCR_SLD	76500
TTM_SCR_ALL	465600
TTM_SCR_S	449600
TTM_SCR_SS	463500
TTM_RAT_ACV	10045

