VERSION	0.00.00	1.03.00
FES_MODE	0
BPM_DEF	181.000	181.000	181.000	181.000
MET_DEF	4	4
RESOLUTION	384
CLK_DEF	384
COMPATIBLE_CODE	MA2

BPM	0	0	181.000
MET	0	0	4	4
MET	54	0	4	3
MET	55	192	4	4

TAP	2	0	3
TAP	2	0	4
TAP	2	96	3
TAP	2	96	4
TAP	2	192	3
TAP	2	192	4
TAP	2	288	1
TAP	2	288	6
TAP	3	0	2
TAP	3	96	3
TAP	3	192	1
TAP	3	192	4
TAP	4	0	5
TAP	4	96	4
TAP	4	192	3
TAP	4	192	6
TAP	5	0	0
TAP	5	96	1
TAP	5	192	2
TAP	5	192	3
TAP	6	0	7
TAP	6	96	6
TAP	6	192	4
TAP	6	192	5
TAP	6	288	4
TAP	6	288	5
TAP	7	0	7
TAP	7	96	6
TAP	7	192	0
TAP	7	192	5
TAP	8	0	0
TAP	8	96	1
TAP	8	192	2
TAP	8	192	7
TAP	9	0	4
TAP	9	96	5
TAP	9	192	6
TAP	9	192	7
TAP	10	0	3
TAP	10	96	2
TAP	10	192	0
TAP	10	192	1
TAP	10	288	0
TAP	10	288	1
STR	11	0	0
SXL	11	0	0	96	480	3
STR	11	0	7
SXR	11	0	7	96	480	4
TAP	13	0	2
TAP	13	96	2
TAP	13	192	3
TAP	13	288	3
TAP	14	0	2
TAP	14	96	3
TAP	14	192	1
TAP	14	192	4
TAP	15	0	5
TAP	15	96	5
TAP	15	192	4
TAP	15	288	4
TAP	16	0	5
TAP	16	96	4
TAP	16	192	3
TAP	16	192	6
TAP	17	0	2
TAP	17	96	2
TAP	17	192	1
TAP	17	192	3
TAP	18	0	5
TAP	18	96	5
TAP	18	192	4
TAP	18	192	6
TAP	19	0	0
TAP	19	96	1
TAP	19	192	2
TAP	19	192	7
TAP	20	0	7
TAP	20	96	6
TAP	20	192	0
TAP	20	192	5
TAP	21	0	6
TAP	21	96	6
TAP	21	192	7
TAP	21	288	7
TAP	22	0	6
TAP	22	96	7
TAP	22	192	0
TAP	22	192	5
TAP	23	0	1
TAP	23	96	1
TAP	23	192	0
TAP	23	288	0
TAP	24	0	1
TAP	24	96	0
TAP	24	192	2
TAP	24	192	7
TAP	25	0	6
TAP	25	96	6
TAP	25	192	5
TAP	25	192	7
TAP	26	0	1
TAP	26	96	1
TAP	26	192	0
TAP	26	192	2
TAP	27	0	4
TAP	27	96	5
TAP	27	192	3
TAP	27	192	6
TAP	27	288	3
TAP	27	288	6
TAP	28	0	3
TAP	28	96	2
TAP	28	192	1
TAP	28	192	4
TAP	28	288	1
TAP	28	288	4
HLD	29	0	5	288
TAP	29	192	4
TAP	29	288	4
HLD	30	0	2	288
TAP	30	192	3
TAP	30	288	3
HLD	31	0	5	288
TAP	31	192	4
TAP	31	288	4
HLD	32	0	2	96
TAP	32	96	3
HLD	32	192	5	96
TAP	32	288	4
HLD	33	0	2	288
TAP	33	192	0
TAP	33	288	0
HLD	34	0	5	288
TAP	34	192	7
TAP	34	288	7
HLD	35	0	1	96
TAP	35	96	0
HLD	35	192	6	96
TAP	35	288	7
TAP	36	0	0
TAP	36	0	7
TAP	36	96	0
TAP	36	96	7
TAP	36	192	0
TAP	36	192	7
TAP	37	0	1
TAP	37	0	6
TAP	37	96	1
TAP	37	96	6
BRK	37	192	1
BRK	37	192	6
TAP	38	0	1
TAP	38	96	0
TAP	38	192	2
TAP	38	192	7
TAP	38	288	2
TAP	38	288	7
TAP	39	0	6
TAP	39	96	5
TAP	39	192	3
TAP	39	192	4
TAP	40	0	6
TAP	40	96	7
TAP	40	192	0
TAP	40	192	5
TAP	40	288	0
TAP	40	288	5
TAP	41	0	1
TAP	41	96	2
TAP	41	192	3
TAP	41	192	4
TAP	42	0	4
TAP	42	0	5
TAP	42	96	4
TAP	42	96	5
TAP	42	192	3
TAP	42	192	6
TAP	43	0	2
TAP	43	0	3
TAP	43	96	2
TAP	43	96	3
TAP	43	192	1
TAP	43	192	4
TAP	44	0	3
TAP	44	0	4
TAP	44	96	2
TAP	44	96	5
STR	44	192	1
SI_	44	192	1	96	96	3
STR	44	192	6
SI_	44	192	6	96	96	4
TAP	45	192	3
TAP	45	192	4
TAP	45	288	3
TAP	45	288	4
TAP	46	0	2
TAP	46	96	3
TAP	46	192	1
TAP	46	192	4
TAP	46	288	1
TAP	46	288	4
TAP	47	0	5
TAP	47	96	6
TAP	47	192	0
TAP	47	192	7
TAP	48	0	5
TAP	48	96	4
TAP	48	192	3
TAP	48	192	6
TAP	48	288	3
TAP	48	288	6
TAP	49	0	2
TAP	49	96	1
TAP	49	192	0
TAP	49	192	7
TAP	49	288	0
TAP	49	288	7
TAP	50	0	6
TAP	50	0	7
TAP	50	96	6
TAP	50	96	7
TAP	50	192	0
TAP	50	192	5
TAP	51	0	0
TAP	51	0	1
TAP	51	96	0
TAP	51	96	1
TAP	51	192	2
TAP	51	192	7
TAP	52	0	2
TAP	52	0	3
TAP	52	96	1
TAP	52	192	0
TAP	52	192	7
TAP	52	288	0
TAP	52	288	7
TAP	53	0	4
TAP	53	0	5
TAP	53	96	6
TAP	53	192	0
TAP	53	192	7
TAP	53	288	0
TAP	53	288	7
BRK	54	0	1
BRK	54	0	6
TAP	54	288	2
TAP	54	288	5
TAP	55	192	3
TAP	55	192	4
TAP	56	0	3
TAP	56	0	4
TAP	56	96	3
TAP	56	96	4
HLD	56	192	2	288
TAP	56	192	5
TAP	57	0	3
TAP	57	96	3
TAP	57	192	2
HLD	57	192	5	288
TAP	58	0	4
TAP	58	96	4
HLD	58	192	2	288
TAP	58	192	5
TAP	59	0	3
TAP	59	96	3
HLD	59	192	5	96
TAP	59	288	4
HLD	60	0	2	96
TAP	60	96	3
TAP	60	192	3
HLD	60	192	6	288
TAP	61	0	5
TAP	61	96	5
HLD	61	192	1	288
TAP	61	192	4
TAP	62	0	2
TAP	62	96	2
TAP	62	192	3
HLD	62	192	6	288
TAP	63	0	5
TAP	63	96	5
HLD	63	192	1	96
TAP	63	288	2
HLD	64	0	6	96
TAP	64	96	5
HLD	64	192	0	96
HLD	64	288	1	96
HLD	65	0	2	96
HLD	65	96	3	96
HLD	65	192	4	96
HLD	65	288	5	96
HLD	66	0	6	96
TAP	66	96	7
HLD	66	192	7	96
HLD	66	288	6	96
HLD	67	0	5	96
HLD	67	96	4	96
HLD	67	192	3	96
HLD	67	288	2	96
HLD	68	0	1	96
TAP	68	96	0
TAP	68	192	2
TAP	68	192	3
TAP	68	288	2
TAP	68	288	3
TAP	69	0	4
TAP	69	0	5
TAP	69	96	4
TAP	69	96	5
TAP	69	192	6
TAP	69	192	7
TAP	69	288	6
TAP	69	288	7
TAP	70	0	0
TAP	70	0	1
TAP	70	96	0
TAP	70	96	1
TAP	70	192	1
TAP	70	192	2
TAP	70	288	1
TAP	70	288	2
TAP	71	0	3
TAP	71	0	4
TAP	71	96	3
TAP	71	96	4
TAP	71	192	5
TAP	71	192	6
TAP	71	288	5
TAP	71	288	6
TAP	72	0	0
TAP	72	0	7
TAP	72	96	0
TAP	72	96	7
BST	72	192	0
SXL	72	192	0	96	480	3
BST	72	192	7
SXR	72	192	7	96	480	4
TAP	74	192	2
TAP	74	288	1
TAP	74	288	3
TAP	75	0	0
TAP	75	0	4
TAP	75	96	5
TAP	75	96	7
HLD	75	192	6	96
TAP	75	288	7
TAP	76	0	0
TAP	76	0	5
TAP	76	192	5
TAP	76	288	4
TAP	76	288	6
TAP	77	0	3
TAP	77	0	7
TAP	77	96	0
TAP	77	96	2
HLD	77	192	1	96
TAP	77	288	0
TAP	78	0	2
TAP	78	0	7
TAP	78	192	1
TAP	78	192	6
TAP	78	288	0
TAP	78	336	0
TAP	79	48	7
TAP	79	96	7
TAP	79	192	1
TAP	79	192	6
TAP	79	288	7
TAP	79	336	7
TAP	80	48	0
TAP	80	96	0
BRK	80	192	1
BRK	80	192	6
TAP	81	192	3
TAP	81	192	4
TAP	81	288	3
TAP	81	288	4
TAP	82	0	3
TAP	82	0	4
TAP	82	192	1
TAP	82	192	6
TAP	83	192	0
TAP	83	192	7
TAP	83	288	0
TAP	83	288	7
TAP	84	0	0
TAP	84	0	7
TAP	84	192	4
TAP	84	192	5
TAP	84	288	4
TAP	84	288	5
TAP	85	0	3
TAP	85	0	6
TAP	85	192	2
TAP	85	192	3
TAP	85	288	2
TAP	85	288	3
TAP	86	0	1
TAP	86	0	4
STR	86	192	1
SI_	86	192	1	96	96	3
STR	86	192	6
SI_	86	192	6	96	96	4
TAP	87	192	3
TAP	87	192	4
TAP	88	0	3
TAP	88	0	4
TAP	88	96	3
TAP	88	96	4
TAP	88	192	2
TAP	88	288	3
TAP	89	0	1
TAP	89	0	4
TAP	89	96	1
TAP	89	96	4
TAP	89	192	0
TAP	89	192	5
TAP	89	288	6
TAP	89	288	7
TAP	90	0	0
TAP	90	0	5
TAP	90	192	5
TAP	90	288	4
TAP	91	0	3
TAP	91	0	6
TAP	91	96	3
TAP	91	96	6
TAP	91	192	2
TAP	91	192	7
TAP	91	288	0
TAP	91	288	1
TAP	92	0	2
TAP	92	0	7
TAP	92	96	2
TAP	92	96	7
TAP	92	192	4
TAP	92	288	3
TAP	92	288	5
TAP	93	0	2
TAP	93	0	6
TAP	93	192	3
TAP	93	288	2
TAP	93	288	4
TAP	94	0	1
TAP	94	0	5
TAP	94	192	5
TAP	94	288	4
TAP	94	288	6
TAP	95	0	0
TAP	95	0	7
TAP	95	96	0
TAP	95	96	7
TAP	95	192	2
TAP	95	288	1
TAP	95	288	3
TAP	96	0	0
TAP	96	0	7
TAP	96	192	5
TAP	96	288	4
TAP	96	288	6
TAP	97	0	0
TAP	97	0	7
TAP	97	96	0
TAP	97	96	7
BST	97	192	0
SXL	97	192	0	96	480	3
BST	97	192	7
SXR	97	192	7	96	480	4
TAP	99	192	7
TAP	99	288	6
TAP	100	0	4
TAP	100	0	5
TAP	100	192	0
TAP	100	288	1
TAP	101	0	2
TAP	101	0	3
TAP	101	96	1
TAP	101	96	4
TAP	101	192	7
TAP	101	288	6
TAP	102	0	0
TAP	102	0	5
TAP	102	96	0
TAP	102	96	5
TAP	102	192	0
TAP	102	288	1
TAP	103	0	2
TAP	103	0	7
TAP	103	96	2
TAP	103	96	7
TAP	103	192	4
TAP	103	288	5
TAP	104	0	6
TAP	104	0	7
TAP	104	96	0
TAP	104	96	5
TAP	104	192	3
TAP	104	288	2
TAP	105	0	0
TAP	105	0	1
TAP	105	96	2
TAP	105	96	7
HLD	105	192	0	624
TAP	105	192	7
BRK	107	48	7

T_REC_TAP	442
T_REC_BRK	7
T_REC_XTP	0
T_REC_HLD	36
T_REC_XHO	0
T_REC_STR	6
T_REC_BST	4
T_REC_XST	0
T_REC_TTP	0
T_REC_THO	0
T_REC_SLD	10
T_REC_ALL	505
T_NUM_TAP	448
T_NUM_BRK	11
T_NUM_HLD	36
T_NUM_SLD	10
T_NUM_ALL	505
T_JUDGE_TAP	459
T_JUDGE_HLD	127
T_JUDGE_SLD	10
T_JUDGE_ALL	596
TTM_EACHPAIRS	163
TTM_SCR_TAP	224000
TTM_SCR_BRK	28600
TTM_SCR_HLD	36000
TTM_SCR_SLD	15000
TTM_SCR_ALL	303600
TTM_SCR_S	293450
TTM_SCR_SS	302500
TTM_RAT_ACV	10036

