VERSION	0.00.00	1.03.00
FES_MODE	0
BPM_DEF	181.000	181.000	181.000	181.000
MET_DEF	4	4
RESOLUTION	384
CLK_DEF	384
COMPATIBLE_CODE	MA2

BPM	0	0	181.000
MET	0	0	4	4
MET	54	0	4	3
MET	55	192	4	4

TAP	3	0	0
TAP	3	192	0
TAP	4	0	1
TAP	4	192	1
TAP	5	0	2
TAP	5	192	2
TAP	6	0	3
TAP	6	96	3
TAP	6	192	3
TAP	7	0	4
TAP	7	192	4
TAP	8	0	5
TAP	8	192	5
TAP	9	0	6
TAP	9	192	6
TAP	10	0	7
TAP	10	96	7
TAP	10	192	7
HLD	11	0	0	192
HLD	12	0	7	192
TAP	13	0	0
TAP	13	192	0
TAP	14	0	7
TAP	14	96	7
TAP	14	192	7
TAP	15	0	6
TAP	15	192	6
TAP	16	0	5
TAP	16	96	5
TAP	16	192	4
TAP	16	192	5
TAP	17	0	4
TAP	17	192	4
TAP	18	0	3
TAP	18	96	3
TAP	18	192	3
TAP	19	0	2
TAP	19	192	2
TAP	20	0	1
TAP	20	96	1
TAP	20	192	0
TAP	20	192	1
TAP	21	0	2
TAP	21	192	2
TAP	22	0	3
TAP	22	96	3
TAP	22	192	3
TAP	23	0	4
TAP	23	192	4
TAP	24	0	5
TAP	24	96	5
TAP	24	192	4
TAP	24	192	5
TAP	25	0	6
TAP	25	192	6
TAP	26	0	7
TAP	26	96	7
TAP	26	192	7
TAP	27	0	0
TAP	27	192	0
TAP	28	0	1
TAP	28	96	1
TAP	28	192	0
TAP	28	192	1
STR	29	0	7
SI_	29	0	7	96	288	4
STR	31	0	0
SI_	31	0	0	96	288	3
STR	33	0	4
SI_	33	0	4	96	288	7
STR	35	0	3
SI_	35	0	3	96	288	0
TAP	37	0	7
BRK	37	192	0
BRK	37	192	7
TAP	38	0	1
TAP	38	96	1
TAP	38	192	1
TAP	39	0	2
TAP	39	96	2
TAP	39	192	2
TAP	40	0	3
TAP	40	96	3
TAP	40	192	3
TAP	41	0	4
TAP	41	96	3
TAP	41	192	4
TAP	42	0	5
TAP	42	96	5
TAP	42	192	5
TAP	43	0	6
TAP	43	96	6
TAP	43	192	6
TAP	44	0	7
TAP	44	96	7
TAP	44	192	7
TAP	45	0	0
TAP	45	96	7
TAP	45	192	0
TAP	46	0	6
TAP	46	96	6
TAP	46	192	6
TAP	47	0	5
TAP	47	96	5
TAP	47	192	5
TAP	48	0	4
TAP	48	96	4
TAP	48	192	4
TAP	49	0	3
TAP	49	96	4
TAP	49	192	3
TAP	50	0	2
TAP	50	96	2
TAP	50	192	2
TAP	51	0	1
TAP	51	96	1
TAP	51	192	1
TAP	52	0	0
TAP	52	192	0
TAP	53	0	7
TAP	53	96	7
BRK	53	192	7
STR	54	0	0
SI_	54	0	0	96	288	4
HLD	56	192	7	192
HLD	57	192	6	192
HLD	58	192	5	192
HLD	59	192	4	192
HLD	60	192	3	192
HLD	61	192	2	192
HLD	62	192	1	192
HLD	63	192	0	192
TAP	64	192	7
TAP	65	0	7
TAP	65	192	0
TAP	66	0	0
TAP	66	0	7
TAP	66	192	1
TAP	67	0	1
TAP	67	192	2
TAP	68	0	2
TAP	68	0	3
TAP	68	192	3
TAP	69	0	3
TAP	69	192	4
TAP	70	0	3
TAP	70	0	4
TAP	70	192	5
TAP	71	0	5
TAP	71	192	6
TAP	72	0	6
TAP	72	0	7
TAP	72	192	0
TAP	72	288	0
TAP	73	0	0
TAP	73	192	7
TAP	73	288	7
TAP	74	0	7
TAP	74	192	6
TAP	74	288	6
TAP	75	0	6
TAP	75	192	5
TAP	75	288	5
TAP	76	0	4
TAP	76	0	5
TAP	76	192	4
TAP	76	288	4
TAP	77	0	4
TAP	77	192	3
TAP	77	288	3
TAP	78	0	3
TAP	78	192	2
TAP	78	288	2
TAP	79	0	2
TAP	79	192	1
TAP	79	288	1
TAP	80	0	0
TAP	80	0	1
STR	80	192	1
SI_	80	192	1	96	288	5
STR	82	192	6
SI_	82	192	6	96	288	2
STR	84	192	0
SI_	84	192	0	96	288	4
STR	86	192	7
SI_	86	192	7	96	288	3
TAP	88	192	0
TAP	88	288	0
TAP	89	0	1
TAP	89	96	1
TAP	89	192	2
TAP	89	288	2
TAP	90	0	2
TAP	90	0	3
TAP	90	192	3
TAP	90	288	3
TAP	91	0	4
TAP	91	96	4
TAP	91	192	5
TAP	91	288	5
TAP	92	0	4
TAP	92	0	5
TAP	92	192	6
TAP	92	288	6
TAP	93	0	7
TAP	93	96	7
TAP	93	192	0
TAP	93	288	0
TAP	94	0	0
TAP	94	0	7
TAP	94	192	0
TAP	94	192	1
TAP	95	0	0
TAP	95	0	1
TAP	95	192	6
TAP	95	192	7
TAP	95	288	6
TAP	95	288	7
TAP	96	0	6
TAP	96	0	7
TAP	96	192	0
TAP	96	192	1
TAP	96	288	0
TAP	96	288	1
BRK	97	0	0
BRK	97	0	1
TAP	97	192	7
TAP	97	288	7
TAP	98	0	7
TAP	98	192	6
TAP	98	288	6
TAP	99	0	6
TAP	99	192	5
TAP	99	288	5
TAP	100	0	4
TAP	100	96	4
TAP	100	192	3
TAP	100	288	4
TAP	101	0	3
TAP	101	0	4
TAP	101	192	3
TAP	101	288	3
TAP	102	0	3
TAP	102	192	2
TAP	102	288	2
TAP	103	0	2
TAP	103	192	1
TAP	103	288	1
TAP	104	0	0
TAP	104	96	0
TAP	104	192	7
TAP	104	288	0
TAP	105	0	0
TAP	105	0	7
HLD	105	192	0	624
HLD	105	192	7	624

T_REC_TAP	221
T_REC_BRK	5
T_REC_XTP	0
T_REC_HLD	12
T_REC_XHO	0
T_REC_STR	9
T_REC_BST	0
T_REC_XST	0
T_REC_TTP	0
T_REC_THO	0
T_REC_SLD	9
T_REC_ALL	256
T_NUM_TAP	230
T_NUM_BRK	5
T_NUM_HLD	12
T_NUM_SLD	9
T_NUM_ALL	256
T_JUDGE_TAP	235
T_JUDGE_HLD	66
T_JUDGE_SLD	9
T_JUDGE_ALL	310
TTM_EACHPAIRS	25
TTM_SCR_TAP	115000
TTM_SCR_BRK	13000
TTM_SCR_HLD	12000
TTM_SCR_SLD	13500
TTM_SCR_ALL	153500
TTM_SCR_S	148450
TTM_SCR_SS	153000
TTM_RAT_ACV	10032

