VERSION	0.00.00	1.03.00
FES_MODE	0
BPM_DEF	200.000	200.000	200.000	200.000
MET_DEF	4	4
RESOLUTION	384
CLK_DEF	384
COMPATIBLE_CODE	MA2

BPM	0	0	200.000
MET	0	0	4	4

TAP	2	240	0
TAP	2	264	7
TAP	2	288	1
TAP	2	288	6
TAP	3	0	2
TAP	3	48	2
TAP	3	96	3
HLD	3	144	2	96
TAP	3	240	3
TAP	3	288	2
HLD	3	336	3	96
TAP	4	48	2
HLD	4	96	3	144
TAP	4	240	2
TAP	4	288	1
TAP	4	288	4
TAP	5	0	3
TAP	5	48	3
TAP	5	96	4
HLD	5	144	3	96
TAP	5	240	4
TAP	5	288	3
HLD	5	336	4	96
TAP	6	48	3
TAP	6	96	2
TAP	6	96	5
TAP	6	192	0
TAP	6	216	7
TAP	6	240	0
TAP	6	264	7
TAP	6	288	0
TAP	7	0	2
TAP	7	48	2
TAP	7	96	3
HLD	7	144	2	96
TAP	7	240	3
TAP	7	288	2
HLD	7	336	3	96
TAP	8	48	2
HLD	8	96	3	96
HLD	8	192	4	96
HLD	8	288	5	96
TAP	9	0	4
TAP	9	48	4
TAP	9	96	5
HLD	9	144	4	96
TAP	9	240	5
TAP	9	288	3
TAP	9	288	6
TAP	9	336	5
TAP	9	360	4
TAP	10	0	5
TAP	10	48	2
TAP	10	72	3
TAP	10	96	2
TAP	10	144	1
TAP	10	144	6
TAP	10	192	0
TAP	10	216	7
TAP	10	240	0
TAP	10	264	7
TAP	10	288	0
BST	10	336	1
SI_	10	336	1	96	48	5
BRK	10	336	6
STR	11	48	6
SI_	11	48	6	96	48	3
TAP	11	96	6
STR	11	144	1
SI_	11	144	1	96	48	5
STR	11	240	7
SI_	11	240	7	96	48	3
TAP	11	288	7
STR	11	336	1
SI_	11	336	1	96	48	5
STR	12	48	0
SI_	12	48	0	96	48	3
TAP	12	96	0
STR	12	144	1
SI_	12	144	1	96	48	5
TAP	12	240	6
TAP	12	288	6
TAP	12	336	1
STR	12	336	6
SI_	12	336	6	96	48	2
STR	13	48	1
SI_	13	48	1	96	48	4
TAP	13	96	1
STR	13	144	6
SI_	13	144	6	96	48	2
STR	13	240	0
SI_	13	240	0	96	48	4
TAP	13	288	0
STR	13	336	6
SI_	13	336	6	96	48	2
STR	14	48	7
SI_	14	48	7	96	48	4
TAP	14	96	7
STR	14	144	6
SI_	14	144	6	96	48	2
TAP	14	240	1
TAP	14	288	1
STR	14	336	1
SCR	14	336	1	96	48	4
TAP	14	336	6
STR	15	48	6
SUL	15	48	6	96	48	2
TAP	15	96	6
STR	15	144	1
SCR	15	144	1	96	48	4
STR	15	240	7
SUL	15	240	7	96	48	3
TAP	15	288	7
STR	15	336	1
SCR	15	336	1	96	48	4
STR	16	48	0
SUL	16	48	0	96	48	4
TAP	16	96	0
STR	16	144	1
SUR	16	144	1	96	48	5
TAP	16	240	6
TAP	16	288	6
TAP	16	336	1
STR	16	336	6
SCL	16	336	6	96	48	3
STR	17	48	1
SUR	17	48	1	96	48	5
TAP	17	96	1
STR	17	144	6
SCL	17	144	6	96	48	3
STR	17	240	0
SUR	17	240	0	96	48	4
TAP	17	288	0
STR	17	336	6
SCL	17	336	6	96	48	3
STR	18	48	7
SUR	18	48	7	96	120	0
TAP	18	96	7
HLD	18	144	6	192
TAP	18	336	1
TAP	19	48	3
TAP	19	48	4
TAP	19	96	3
TAP	19	96	4
TAP	19	192	2
TAP	19	240	2
TAP	19	288	1
TAP	19	288	3
TAP	20	0	5
STR	20	48	4
SI_	20	48	4	96	48	1
STR	20	48	6
SCL	20	48	6	96	48	3
TAP	20	240	0
TAP	20	288	7
TAP	20	336	4
TAP	20	336	6
TAP	21	48	2
TAP	21	96	1
TAP	21	96	3
TAP	21	192	5
TAP	21	240	5
TAP	21	288	4
TAP	21	288	6
TAP	22	0	2
STR	22	48	1
SCR	22	48	1	96	48	4
STR	22	48	3
SI_	22	48	3	96	48	6
TAP	22	240	7
TAP	22	288	0
TAP	22	336	1
TAP	22	336	3
TAP	23	48	5
TAP	23	96	4
TAP	23	96	6
TAP	23	192	2
TAP	23	240	2
TAP	23	288	1
STR	23	288	3
SCR	23	288	3	96	96	6
STR	24	0	6
SCR	24	0	6	96	96	1
STR	24	96	1
SCR	24	96	1	96	96	4
TAP	24	192	4
STR	24	336	7
SI_	24	336	7	96	48	3
TAP	25	48	0
TAP	25	96	0
TAP	25	192	3
TAP	25	240	2
TAP	25	288	1
STR	25	336	0
SI_	25	336	0	96	48	4
TAP	26	48	7
TAP	26	96	7
TAP	26	192	4
TAP	26	240	5
TAP	26	288	6
TAP	26	336	0
TAP	26	336	7
TAP	27	48	3
TAP	27	48	4
TAP	27	96	3
TAP	27	96	4
TAP	27	192	6
TAP	27	240	6
TAP	27	288	5
TAP	27	288	7
TAP	28	0	1
STR	28	48	0
SI_	28	48	0	96	48	5
STR	28	48	2
SCL	28	48	2	96	48	7
TAP	28	240	4
TAP	28	288	3
TAP	28	336	0
TAP	28	336	2
TAP	29	48	6
TAP	29	96	5
TAP	29	96	7
TAP	29	192	1
TAP	29	240	1
TAP	29	288	0
TAP	29	288	2
TAP	30	0	6
STR	30	48	5
SCR	30	48	5	96	48	0
STR	30	48	7
SI_	30	48	7	96	48	2
TAP	30	240	3
TAP	30	288	4
TAP	30	336	5
TAP	30	336	7
TAP	31	48	2
TAP	31	96	1
TAP	31	96	3
TAP	31	192	5
TAP	31	240	5
STR	31	288	4
SCL	31	288	4	96	96	1
TAP	31	288	6
STR	32	0	1
SCL	32	0	1	96	96	6
STR	32	96	6
SCL	32	96	6	96	96	3
TAP	32	192	3
STR	33	0	0
SCL	33	0	0	96	48	5
TAP	33	96	1
STR	33	192	7
SCR	33	192	7	96	48	2
TAP	33	288	6
STR	34	0	1
SCR	34	0	1	96	48	4
TAP	34	96	0
STR	34	192	6
SCL	34	192	6	96	48	3
TAP	34	288	7
HLD	35	0	2	192
TAP	35	96	3
HLD	35	192	1	192
TAP	35	288	2
HLD	36	0	0	192
TAP	36	96	1
HLD	36	192	3	96
HLD	36	288	4	96
HLD	37	0	5	192
TAP	37	96	4
HLD	37	192	6	192
TAP	37	288	5
HLD	38	0	7	192
TAP	38	96	6
HLD	38	192	4	96
HLD	38	288	3	96
HLD	39	0	2	288
TAP	39	96	3
TAP	39	192	3
TAP	39	288	3
HLD	40	0	5	288
TAP	40	96	4
TAP	40	192	4
TAP	40	288	4
TAP	41	0	0
TAP	41	24	7
TAP	41	48	0
TAP	41	72	7
TAP	41	96	0
TAP	41	120	7
TAP	41	144	0
TAP	41	168	7
TAP	41	192	0
TAP	41	216	7
TAP	41	240	0
TAP	41	264	7
TAP	41	288	0
TAP	41	312	7
TAP	41	336	0
TAP	41	360	7
BRK	42	0	1
BRK	42	0	6
TAP	42	192	2
TAP	42	192	5
STR	42	240	0
SI_	42	240	0	96	48	4
STR	42	240	7
SI_	42	240	7	96	48	3
BRK	42	336	0
BRK	42	336	7
STR	43	96	5
SI_	43	96	5	96	48	0
STR	43	192	1
SI_	43	192	1	96	48	4
TAP	43	192	5
TAP	43	288	1
STR	43	288	7
SI_	43	288	7	96	48	3
TAP	44	0	0
TAP	44	0	7
TAP	44	96	2
TAP	44	96	6
TAP	44	192	0
TAP	44	192	1
STR	44	240	0
SI_	44	240	0	96	48	4
STR	44	240	1
SI_	44	240	1	96	48	5
TAP	44	336	0
TAP	44	336	1
STR	45	96	2
SI_	45	96	2	96	48	7
TAP	45	192	2
STR	45	192	6
SI_	45	192	6	96	48	3
STR	45	288	0
SI_	45	288	0	96	48	4
TAP	45	288	6
TAP	46	0	0
TAP	46	0	7
TAP	46	96	1
TAP	46	96	5
TAP	46	192	6
TAP	46	192	7
STR	46	240	6
SI_	46	240	6	96	48	2
STR	46	240	7
SI_	46	240	7	96	48	3
TAP	46	336	6
TAP	46	336	7
STR	47	96	5
SI_	47	96	5	96	48	0
STR	47	192	2
SI_	47	192	2	96	48	7
TAP	47	192	5
TAP	47	288	2
STR	47	288	4
SF_	47	288	4	96	48	0
TAP	48	0	4
TAP	48	96	2
TAP	48	96	6
TAP	48	192	1
TAP	48	192	5
TAP	48	240	2
TAP	48	240	6
STR	48	288	3
SXR	48	288	3	96	192	0
STR	48	288	7
SXR	48	288	7	96	192	4
BRK	49	288	1
BRK	49	288	6
BRK	49	336	1
BRK	49	336	6
TAP	50	48	5
TAP	50	72	4
TAP	50	96	5
TAP	50	120	4
TAP	50	144	5
TAP	50	192	2
TAP	50	216	3
TAP	50	240	2
TAP	50	264	3
TAP	50	288	2
BRK	50	336	0
BRK	50	336	7
TAP	51	48	1
STR	51	96	1
SCR	51	96	1	96	48	4
TAP	51	192	1
STR	51	192	5
SCR	51	192	5	96	48	0
STR	51	288	3
SI_	51	288	3	96	48	7
TAP	51	288	5
TAP	52	0	3
TAP	52	0	4
TAP	52	96	1
TAP	52	96	5
TAP	52	192	2
TAP	52	192	6
STR	52	240	2
SUL	52	240	2	96	48	5
STR	52	240	6
SCR	52	240	6	96	48	1
TAP	52	336	2
TAP	52	336	6
STR	53	96	6
SCL	53	96	6	96	48	3
STR	53	192	2
SCL	53	192	2	96	48	7
TAP	53	192	6
TAP	53	288	2
STR	53	288	4
SI_	53	288	4	96	48	0
TAP	54	0	3
TAP	54	0	4
TAP	54	96	2
TAP	54	96	6
TAP	54	192	4
TAP	54	192	5
STR	54	240	4
SI_	54	240	4	96	48	0
STR	54	240	5
SI_	54	240	5	96	48	7
TAP	54	336	4
TAP	54	336	5
TAP	55	96	2
TAP	55	96	6
TAP	55	192	2
TAP	55	192	3
STR	55	240	2
SI_	55	240	2	96	48	0
STR	55	240	3
SI_	55	240	3	96	48	7
TAP	55	336	2
TAP	55	336	3
TAP	56	96	1
TAP	56	96	5
TAP	56	192	3
TAP	56	192	7
STR	56	240	3
SCL	56	240	3	96	48	0
STR	56	240	7
SCL	56	240	7	96	48	4
TAP	56	336	3
TAP	56	336	7
TAP	57	48	0
TAP	57	72	4
TAP	57	96	1
TAP	57	120	5
TAP	57	144	2
TAP	57	168	6
TAP	57	192	3
TAP	57	216	7
TAP	57	240	2
TAP	57	264	6
TAP	57	288	1
TAP	57	312	5
TAP	57	336	0
TAP	57	360	4
BRK	58	0	7
TAP	58	336	1
TAP	58	336	4
TAP	59	48	3
TAP	59	48	6
STR	59	96	3
SUL	59	96	3	96	48	7
STR	59	96	6
SCL	59	96	6	96	48	3
TAP	59	192	3
TAP	59	192	6
STR	59	288	3
SUR	59	288	3	96	48	7
STR	59	288	7
SCR	59	288	7	96	48	2
TAP	60	0	3
TAP	60	0	7
STR	60	96	2
SI_	60	96	2	96	48	5
STR	60	96	7
SI_	60	96	7	96	48	4
TAP	60	192	2
TAP	60	192	7
TAP	60	288	4
TAP	60	288	5
TAP	60	336	3
STR	60	336	6
SCR	60	336	6	96	144	3
TAP	61	48	3
STR	61	96	3
SCR	61	96	3	96	96	6
STR	61	192	6
SCR	61	192	6	96	96	1
STR	61	288	1
SCR	61	288	1	96	96	4
STR	62	0	4
SCR	62	0	4	96	96	7
STR	62	96	7
SI_	62	96	7	96	48	3
TAP	62	192	2
TAP	62	240	1
TAP	62	288	0
TAP	62	336	3
TAP	62	336	7
TAP	63	48	1
TAP	63	48	4
STR	63	96	1
SCR	63	96	1	96	48	4
STR	63	96	4
SUR	63	96	4	96	48	0
TAP	63	192	1
TAP	63	192	4
STR	63	288	0
SCL	63	288	0	96	48	5
STR	63	288	4
SUL	63	288	4	96	48	0
TAP	64	0	0
TAP	64	0	4
STR	64	96	0
SI_	64	96	0	96	48	3
STR	64	96	5
SI_	64	96	5	96	48	2
TAP	64	192	0
TAP	64	192	5
TAP	64	288	2
TAP	64	288	3
STR	64	336	1
SCL	64	336	1	96	144	4
TAP	64	336	4
TAP	65	48	4
STR	65	96	4
SCL	65	96	4	96	96	1
STR	65	192	1
SCL	65	192	1	96	96	6
STR	65	288	6
SCL	65	288	6	96	96	3
STR	66	0	3
SCL	66	0	3	96	96	0
STR	66	96	0
SI_	66	96	0	96	48	4
TAP	66	192	5
TAP	66	240	6
TAP	66	288	7
TAP	66	336	0
TAP	66	336	4
TAP	67	48	3
TAP	67	48	7
STR	67	96	3
SCL	67	96	3	96	48	0
STR	67	96	7
SCL	67	96	7	96	48	4
TAP	67	192	3
TAP	67	192	7
STR	67	288	0
SUR	67	288	0	96	48	4
STR	67	288	4
SUR	67	288	4	96	48	0
TAP	68	0	0
TAP	68	0	4
STR	68	96	0
SCL	68	96	0	96	48	5
STR	68	96	4
SCL	68	96	4	96	48	1
TAP	68	192	0
TAP	68	192	4
TAP	68	288	1
TAP	68	288	5
HLD	68	336	1	96
HLD	68	336	5	96
STR	69	96	1
SI_	69	96	1	96	48	4
TAP	69	144	1
STR	69	192	6
SI_	69	192	6	96	48	2
TAP	69	240	6
STR	69	288	0
SI_	69	288	0	96	48	5
TAP	69	336	0
STR	70	0	7
SI_	70	0	7	96	48	3
TAP	70	48	7
STR	70	96	2
SI_	70	96	2	96	48	7
TAP	70	144	2
TAP	70	192	3
TAP	70	240	4
TAP	70	288	5
TAP	70	336	1
TAP	70	336	6
TAP	71	48	3
TAP	71	48	4
STR	71	96	3
SI_	71	96	3	96	48	7
STR	71	96	4
SI_	71	96	4	96	48	0
TAP	71	192	3
TAP	71	192	4
STR	71	288	0
SCL	71	288	0	96	48	5
STR	71	288	7
SCR	71	288	7	96	48	2
TAP	72	0	0
TAP	72	0	7
TAP	72	96	1
TAP	72	96	6
TAP	72	192	3
TAP	72	216	4
TAP	72	240	3
TAP	72	264	4
TAP	72	288	3
HLD	72	336	1	96
HLD	72	336	6	96
TAP	73	96	1
STR	73	96	6
SI_	73	96	6	96	48	2
STR	73	192	0
SI_	73	192	0	96	48	4
TAP	73	192	6
TAP	73	288	0
STR	73	288	7
SI_	73	288	7	96	48	3
STR	74	0	1
SI_	74	0	1	96	48	5
TAP	74	0	7
TAP	74	96	1
STR	74	96	4
SI_	74	96	4	96	48	0
TAP	74	192	4
TAP	74	240	3
TAP	74	288	2
HLD	74	336	1	1584
HLD	74	336	6	1584

T_REC_TAP	346
T_REC_BRK	12
T_REC_XTP	0
T_REC_HLD	30
T_REC_XHO	0
T_REC_STR	121
T_REC_BST	1
T_REC_XST	0
T_REC_TTP	0
T_REC_THO	0
T_REC_SLD	122
T_REC_ALL	632
T_NUM_TAP	467
T_NUM_BRK	13
T_NUM_HLD	30
T_NUM_SLD	122
T_NUM_ALL	632
T_JUDGE_TAP	480
T_JUDGE_HLD	145
T_JUDGE_SLD	122
T_JUDGE_ALL	747
TTM_EACHPAIRS	125
TTM_SCR_TAP	233500
TTM_SCR_BRK	33800
TTM_SCR_HLD	30000
TTM_SCR_SLD	183000
TTM_SCR_ALL	480300
TTM_SCR_S	464650
TTM_SCR_SS	479000
TTM_RAT_ACV	10027

