VERSION	0.00.00	1.03.00
FES_MODE	0
BPM_DEF	200.000	200.000	200.000	200.000
MET_DEF	4	4
RESOLUTION	384
CLK_DEF	384
COMPATIBLE_CODE	MA2

BPM	0	0	200.000
MET	0	0	4	4

TAP	2	240	3
TAP	2	240	4
TAP	2	288	3
TAP	2	288	4
TAP	3	0	5
TAP	3	96	4
TAP	3	96	5
TAP	3	192	2
TAP	3	288	2
TAP	3	288	3
TAP	4	0	5
TAP	4	96	4
TAP	4	96	5
TAP	4	192	3
TAP	4	240	3
TAP	4	288	4
TAP	5	0	2
TAP	5	96	2
TAP	5	96	3
TAP	5	192	5
TAP	5	288	4
TAP	5	288	5
TAP	6	0	2
TAP	6	96	2
TAP	6	96	3
TAP	6	192	4
TAP	6	240	4
TAP	6	288	3
TAP	7	0	5
TAP	7	96	4
TAP	7	96	6
TAP	7	192	2
TAP	7	288	1
TAP	7	288	3
TAP	8	0	5
TAP	8	96	4
TAP	8	96	6
TAP	8	192	3
TAP	8	240	3
TAP	8	288	4
TAP	9	0	2
TAP	9	96	1
TAP	9	96	3
TAP	9	192	5
TAP	9	288	4
TAP	9	288	6
TAP	10	0	2
TAP	10	0	3
TAP	10	96	4
TAP	10	96	5
TAP	10	192	7
TAP	10	240	7
HLD	10	336	1	96
TAP	10	336	5
TAP	11	48	0
TAP	11	144	2
HLD	11	144	6	96
TAP	11	240	7
HLD	11	336	1	96
TAP	11	336	5
TAP	12	48	0
TAP	12	144	2
HLD	12	144	3	96
TAP	12	240	4
TAP	12	336	2
HLD	12	336	6	96
TAP	13	48	7
HLD	13	144	1	96
TAP	13	144	5
TAP	13	240	0
TAP	13	336	2
HLD	13	336	6	96
TAP	14	48	7
HLD	14	144	4	96
TAP	14	144	5
TAP	14	240	3
HLD	14	336	2	96
TAP	14	336	6
TAP	15	48	3
TAP	15	144	1
HLD	15	144	5	96
TAP	15	240	4
HLD	15	336	2	96
TAP	15	336	6
TAP	16	48	3
HLD	16	144	0	96
TAP	16	144	1
TAP	16	240	7
TAP	16	336	1
HLD	16	336	5	96
TAP	17	48	4
HLD	17	144	2	96
TAP	17	144	6
TAP	17	240	3
TAP	17	336	1
HLD	17	336	5	96
STR	18	48	4
SF_	18	48	4	96	96	0
HLD	18	336	2	144
TAP	19	48	3
TAP	19	96	3
TAP	19	192	4
TAP	19	192	5
TAP	19	288	3
HLD	19	288	6	144
TAP	20	0	7
TAP	20	48	7
TAP	20	144	0
TAP	20	144	5
TAP	20	240	7
HLD	20	336	5	144
TAP	21	48	4
TAP	21	96	4
TAP	21	192	2
TAP	21	192	3
HLD	21	288	1	144
TAP	21	288	4
TAP	22	0	0
TAP	22	48	0
TAP	22	144	2
TAP	22	144	7
TAP	22	240	0
HLD	22	336	2	144
TAP	23	48	3
TAP	23	96	3
TAP	23	192	4
TAP	23	192	5
TAP	23	288	3
TAP	23	288	6
TAP	24	0	0
TAP	24	0	1
TAP	24	96	2
TAP	24	96	7
TAP	24	192	0
TAP	24	192	5
STR	24	288	2
SCL	24	288	2	96	96	7
STR	24	288	3
SCR	24	288	3	96	96	6
TAP	25	192	4
TAP	25	192	5
STR	25	288	4
SCL	25	288	4	96	96	1
STR	25	288	5
SCR	25	288	5	96	96	0
TAP	26	192	3
TAP	26	192	4
TAP	26	240	3
TAP	26	240	4
HLD	26	336	5	144
TAP	27	48	4
TAP	27	96	4
TAP	27	192	0
TAP	27	192	1
HLD	27	288	2	144
TAP	27	288	7
TAP	28	0	3
TAP	28	48	3
TAP	28	144	1
TAP	28	144	4
TAP	28	240	0
HLD	28	336	2	144
TAP	29	48	3
TAP	29	96	3
TAP	29	192	6
TAP	29	192	7
TAP	29	288	0
HLD	29	288	5	144
TAP	30	0	4
TAP	30	48	4
TAP	30	144	3
TAP	30	144	6
TAP	30	240	7
HLD	30	336	5	144
TAP	31	48	4
TAP	31	96	4
TAP	31	192	0
TAP	31	192	1
TAP	31	288	2
TAP	31	288	7
TAP	32	0	4
TAP	32	0	5
TAP	32	96	3
TAP	32	96	6
TAP	32	192	0
TAP	32	192	7
STR	32	288	3
SCL	32	288	3	96	96	0
STR	32	288	4
SCR	32	288	4	96	96	7
TAP	33	192	0
TAP	33	192	7
STR	33	288	0
SCR	33	288	0	96	96	3
STR	33	288	7
SCL	33	288	7	96	96	4
TAP	34	192	2
TAP	34	192	5
TAP	35	0	5
HLD	35	96	5	192
TAP	35	192	4
HLD	35	288	4	192
TAP	36	0	3
HLD	36	96	3	192
TAP	36	192	2
TAP	36	288	2
HLD	37	0	1	192
STR	37	0	5
SCL	37	0	5	96	96	2
TAP	37	288	3
TAP	37	288	4
STR	38	0	2
SCR	38	0	2	96	96	5
HLD	38	0	6	192
TAP	38	288	3
TAP	38	288	4
TAP	39	0	2
HLD	39	96	2	192
TAP	39	192	3
HLD	39	288	3	192
TAP	40	0	4
TAP	40	96	4
TAP	40	192	2
TAP	40	192	5
TAP	40	288	3
TAP	40	288	4
STR	41	0	6
SI_	41	0	6	96	48	4
STR	41	0	7
SI_	41	0	7	96	48	3
STR	41	192	0
SI_	41	192	0	96	48	4
STR	41	192	1
SI_	41	192	1	96	48	3
TAP	42	0	1
TAP	42	0	6
BRK	42	192	0
BRK	42	240	0
TAP	42	336	1
TAP	42	336	6
TAP	43	48	5
TAP	43	96	5
STR	43	192	3
SI_	43	192	3	96	48	0
STR	43	192	7
SI_	43	192	7	96	48	4
TAP	44	0	1
TAP	44	0	5
TAP	44	96	3
TAP	44	96	6
TAP	44	192	2
TAP	44	192	3
TAP	44	240	2
TAP	44	240	3
TAP	44	336	1
TAP	44	336	6
TAP	45	48	2
TAP	45	96	2
STR	45	192	0
SI_	45	192	0	96	48	3
STR	45	192	4
SI_	45	192	4	96	48	7
TAP	46	0	2
TAP	46	0	6
TAP	46	96	1
TAP	46	96	4
TAP	46	192	4
TAP	46	192	5
TAP	46	240	4
TAP	46	240	5
TAP	46	336	1
TAP	46	336	6
TAP	47	48	5
TAP	47	96	5
STR	47	192	3
SI_	47	192	3	96	48	0
STR	47	192	7
SI_	47	192	7	96	48	4
TAP	48	0	1
TAP	48	0	5
TAP	48	96	2
TAP	48	96	3
TAP	48	192	4
TAP	48	192	5
TAP	48	288	3
TAP	48	288	7
TAP	49	0	2
TAP	49	0	3
TAP	49	96	0
TAP	49	96	4
TAP	49	192	3
TAP	49	192	4
BRK	49	288	1
BRK	49	288	6
BRK	49	336	1
BRK	49	336	6
TAP	50	48	7
TAP	50	96	7
TAP	50	192	2
TAP	50	192	5
TAP	50	240	2
TAP	50	240	5
TAP	50	336	6
TAP	50	336	7
TAP	51	48	4
TAP	51	96	4
STR	51	192	2
SI_	51	192	2	96	48	7
STR	51	192	6
SI_	51	192	6	96	48	3
TAP	52	0	1
TAP	52	0	4
TAP	52	96	4
TAP	52	96	6
TAP	52	192	2
TAP	52	192	3
TAP	52	240	2
TAP	52	240	3
TAP	52	336	0
TAP	52	336	1
TAP	53	48	3
TAP	53	96	3
STR	53	192	1
SI_	53	192	1	96	48	4
STR	53	192	5
SI_	53	192	5	96	48	0
TAP	54	0	3
TAP	54	0	6
TAP	54	96	1
TAP	54	96	3
TAP	54	192	4
TAP	54	192	5
STR	54	288	3
SI_	54	288	3	96	48	7
STR	54	288	6
SI_	54	288	6	96	48	4
TAP	55	96	0
TAP	55	96	6
TAP	55	192	2
TAP	55	192	3
STR	55	288	1
SI_	55	288	1	96	48	3
STR	55	288	4
SI_	55	288	4	96	48	0
TAP	56	96	2
TAP	56	96	7
TAP	56	192	0
TAP	56	192	5
TAP	56	288	3
TAP	56	288	4
STR	56	336	3
SCL	56	336	3	96	192	0
STR	56	336	4
SCR	56	336	4	96	192	7
BRK	58	0	0
BRK	58	0	7
HLD	58	336	0	96
HLD	58	336	1	96
TAP	59	96	2
TAP	59	96	7
TAP	59	192	4
HLD	59	192	6	96
TAP	59	288	0
HLD	60	0	1	96
TAP	60	0	3
TAP	60	96	7
TAP	60	192	4
TAP	60	192	6
TAP	60	288	0
HLD	60	336	0	336
TAP	61	48	1
TAP	61	96	1
TAP	61	192	3
TAP	61	288	5
TAP	62	0	3
TAP	62	0	6
TAP	62	96	1
TAP	62	96	4
TAP	62	192	3
TAP	62	192	4
TAP	62	240	3
TAP	62	240	4
HLD	62	336	6	96
HLD	62	336	7	96
TAP	63	96	0
TAP	63	96	5
HLD	63	192	1	96
TAP	63	192	3
TAP	63	288	7
TAP	64	0	4
HLD	64	0	6	96
TAP	64	96	0
TAP	64	192	1
TAP	64	192	3
TAP	64	288	7
HLD	64	336	7	336
TAP	65	48	6
TAP	65	96	6
TAP	65	192	4
TAP	65	288	2
TAP	66	0	1
TAP	66	0	4
TAP	66	96	3
TAP	66	96	6
TAP	66	192	3
TAP	66	192	4
TAP	66	240	3
TAP	66	240	4
HLD	66	336	4	96
HLD	66	336	5	96
TAP	67	96	3
TAP	67	96	6
STR	67	192	6
SI_	67	192	6	96	48	4
STR	67	192	7
SI_	67	192	7	96	48	3
STR	68	0	0
SI_	68	0	0	96	48	4
STR	68	0	1
SI_	68	0	1	96	48	3
TAP	68	192	0
TAP	68	192	7
TAP	68	288	1
TAP	68	288	6
HLD	68	336	1	672
TAP	68	336	6
TAP	69	48	3
TAP	69	96	3
TAP	69	192	5
TAP	69	288	7
TAP	70	0	4
TAP	70	96	6
TAP	70	192	0
TAP	70	240	0
HLD	70	336	2	96
HLD	70	336	3	96
TAP	71	96	1
TAP	71	96	4
STR	71	192	0
SI_	71	192	0	96	48	4
STR	71	192	1
SI_	71	192	1	96	48	3
STR	72	0	6
SI_	72	0	6	96	48	4
STR	72	0	7
SI_	72	0	7	96	48	3
TAP	72	192	0
TAP	72	192	7
TAP	72	288	1
TAP	72	288	6
TAP	72	336	1
TAP	72	336	6
TAP	73	48	5
TAP	73	96	4
TAP	73	96	5
TAP	73	192	2
TAP	73	192	3
TAP	73	288	4
TAP	73	288	6
TAP	74	0	1
TAP	74	0	3
TAP	74	96	0
TAP	74	96	5
TAP	74	192	7
TAP	74	240	7
TAP	74	288	0
HLD	74	336	0	1584

T_REC_TAP	333
T_REC_BRK	8
T_REC_XTP	0
T_REC_HLD	48
T_REC_XHO	0
T_REC_STR	39
T_REC_BST	0
T_REC_XST	0
T_REC_TTP	0
T_REC_THO	0
T_REC_SLD	39
T_REC_ALL	467
T_NUM_TAP	372
T_NUM_BRK	8
T_NUM_HLD	48
T_NUM_SLD	39
T_NUM_ALL	467
T_JUDGE_TAP	380
T_JUDGE_HLD	173
T_JUDGE_SLD	39
T_JUDGE_ALL	592
TTM_EACHPAIRS	152
TTM_SCR_TAP	186000
TTM_SCR_BRK	20800
TTM_SCR_HLD	48000
TTM_SCR_SLD	58500
TTM_SCR_ALL	313300
TTM_SCR_S	303150
TTM_SCR_SS	312500
TTM_RAT_ACV	10025

