VERSION	0.00.00	1.03.00
FES_MODE	0
BPM_DEF	200.000	200.000	200.000	200.000
MET_DEF	4	4
RESOLUTION	384
CLK_DEF	384
COMPATIBLE_CODE	MA2

BPM	0	0	200.000
MET	0	0	4	4

TAP	3	0	2
TAP	3	96	2
TAP	3	192	3
TAP	3	288	3
TAP	4	0	4
TAP	4	0	5
TAP	5	0	5
TAP	5	96	5
TAP	5	192	4
TAP	5	288	4
TAP	6	0	2
TAP	6	0	3
TAP	6	192	1
TAP	7	0	2
TAP	7	96	2
TAP	7	192	3
TAP	7	288	3
TAP	8	0	4
TAP	8	0	5
TAP	9	0	5
TAP	9	96	5
TAP	9	192	4
TAP	9	288	4
TAP	10	0	2
TAP	10	0	3
TAP	10	192	0
TAP	10	192	1
TAP	11	0	2
TAP	11	96	2
TAP	11	192	3
TAP	12	0	4
TAP	12	96	4
TAP	12	192	5
TAP	13	0	6
TAP	13	96	6
TAP	13	192	7
TAP	14	0	0
TAP	14	96	0
TAP	14	192	1
TAP	15	0	2
TAP	15	96	2
TAP	15	192	1
TAP	15	192	3
TAP	16	0	5
TAP	16	96	5
TAP	16	192	4
TAP	16	192	6
TAP	17	0	3
TAP	17	96	3
TAP	17	192	4
TAP	17	288	4
TAP	18	0	3
TAP	18	0	4
BRK	18	192	1
BRK	18	192	6
TAP	19	0	2
TAP	19	192	1
TAP	19	192	3
TAP	20	0	2
TAP	20	96	2
TAP	20	192	1
TAP	20	192	3
TAP	21	0	5
TAP	21	192	4
TAP	21	192	6
TAP	22	0	5
TAP	22	96	5
TAP	22	192	4
TAP	22	192	6
TAP	23	0	2
TAP	23	192	1
TAP	23	192	3
TAP	24	0	2
TAP	24	96	2
TAP	24	192	1
TAP	24	192	3
TAP	25	0	5
STR	25	192	4
SI_	25	192	4	96	288	7
TAP	25	192	6
TAP	27	0	6
TAP	27	192	5
TAP	27	192	7
TAP	28	0	6
TAP	28	96	7
TAP	28	192	0
TAP	28	192	5
TAP	29	0	1
TAP	29	192	0
TAP	29	192	2
TAP	30	0	1
TAP	30	96	0
TAP	30	192	2
TAP	30	192	7
TAP	31	0	6
TAP	31	192	5
TAP	31	192	7
TAP	32	0	6
TAP	32	96	7
TAP	32	192	0
TAP	32	192	5
TAP	33	0	1
STR	33	192	0
SI_	33	192	0	96	288	3
TAP	33	192	2
HLD	35	0	5	192
TAP	35	192	4
TAP	36	0	5
TAP	36	96	5
TAP	36	192	4
TAP	36	192	5
HLD	37	0	2	192
TAP	37	192	3
TAP	38	0	2
TAP	38	96	2
TAP	38	192	2
TAP	38	192	3
HLD	39	0	4	192
TAP	39	192	3
TAP	40	0	4
TAP	40	96	4
TAP	40	192	3
TAP	40	192	4
STR	41	0	3
SI_	41	0	3	96	288	0
STR	41	0	4
SI_	41	0	4	96	288	7
BRK	42	192	0
BRK	42	192	7
TAP	43	0	1
TAP	43	96	0
TAP	43	96	2
TAP	43	192	3
TAP	43	192	7
TAP	44	0	6
TAP	44	96	5
TAP	44	96	7
TAP	44	192	0
TAP	44	192	4
TAP	45	0	4
TAP	45	0	5
TAP	45	96	4
TAP	45	96	5
TAP	45	192	2
TAP	45	192	3
TAP	45	288	2
TAP	45	288	3
HLD	46	0	0	192
HLD	46	0	7	192
TAP	47	0	2
TAP	47	96	1
TAP	47	96	3
TAP	47	192	0
TAP	47	192	4
TAP	48	0	5
TAP	48	96	4
TAP	48	96	6
TAP	48	192	3
TAP	48	192	7
STR	49	0	2
SI_	49	0	2	96	288	7
STR	49	0	3
SI_	49	0	3	96	288	6
TAP	50	192	0
TAP	50	192	5
TAP	51	0	6
TAP	51	96	5
TAP	51	96	7
TAP	51	192	0
TAP	51	192	4
TAP	52	0	1
TAP	52	96	0
TAP	52	96	2
TAP	52	192	3
TAP	52	192	7
TAP	53	0	2
TAP	53	0	3
TAP	53	96	2
TAP	53	96	3
TAP	53	192	4
TAP	53	192	5
TAP	53	288	4
TAP	53	288	5
HLD	54	0	0	192
HLD	54	0	7	192
TAP	55	0	1
TAP	55	0	3
TAP	55	96	1
TAP	55	96	3
TAP	55	192	1
TAP	55	192	3
TAP	56	0	4
TAP	56	0	6
TAP	56	96	4
TAP	56	96	6
TAP	56	192	4
TAP	56	192	6
TAP	57	0	0
TAP	57	0	7
TAP	57	96	0
TAP	57	96	7
TAP	57	192	0
TAP	57	192	7
TAP	57	288	0
TAP	57	288	7
BRK	58	0	1
BRK	58	0	6
TAP	59	0	2
TAP	59	96	2
TAP	59	192	1
TAP	59	192	3
TAP	60	0	5
TAP	60	96	5
TAP	60	192	4
TAP	60	192	6
TAP	61	0	0
TAP	61	96	0
TAP	61	192	7
TAP	61	288	7
TAP	62	0	0
TAP	62	0	7
TAP	62	96	1
TAP	62	96	6
TAP	62	192	2
TAP	62	192	5
TAP	63	0	1
TAP	63	96	1
TAP	63	192	0
TAP	63	192	2
TAP	64	0	6
TAP	64	96	6
TAP	64	192	5
TAP	64	192	7
TAP	65	0	3
TAP	65	96	3
TAP	65	192	4
TAP	65	288	4
TAP	66	0	3
TAP	66	0	4
TAP	66	96	2
TAP	66	96	5
TAP	66	192	1
TAP	66	192	6
TAP	67	0	3
TAP	67	96	2
TAP	67	192	1
TAP	67	192	4
TAP	68	0	4
TAP	68	96	5
TAP	68	192	3
TAP	68	192	6
TAP	69	0	1
TAP	69	96	0
TAP	69	96	1
TAP	69	192	6
TAP	69	288	6
TAP	69	288	7
TAP	70	0	0
TAP	70	0	7
TAP	70	96	1
TAP	70	96	6
TAP	70	192	2
TAP	70	192	5
TAP	71	0	0
TAP	71	96	1
TAP	71	192	2
TAP	71	192	7
TAP	72	0	7
TAP	72	96	6
TAP	72	192	0
TAP	72	192	5
TAP	73	0	0
TAP	73	0	7
TAP	73	96	0
TAP	73	96	7
TAP	73	192	1
TAP	73	192	6
TAP	73	288	1
TAP	73	288	6
TAP	74	0	2
TAP	74	0	5
TAP	74	96	2
TAP	74	96	5
BST	74	192	3
SCL	74	192	3	96	864	4
BRK	74	192	4

T_REC_TAP	258
T_REC_BRK	7
T_REC_XTP	0
T_REC_HLD	7
T_REC_XHO	0
T_REC_STR	6
T_REC_BST	1
T_REC_XST	0
T_REC_TTP	0
T_REC_THO	0
T_REC_SLD	7
T_REC_ALL	286
T_NUM_TAP	264
T_NUM_BRK	8
T_NUM_HLD	7
T_NUM_SLD	7
T_NUM_ALL	286
T_JUDGE_TAP	272
T_JUDGE_HLD	28
T_JUDGE_SLD	7
T_JUDGE_ALL	307
TTM_EACHPAIRS	89
TTM_SCR_TAP	132000
TTM_SCR_BRK	20800
TTM_SCR_HLD	7000
TTM_SCR_SLD	10500
TTM_SCR_ALL	170300
TTM_SCR_S	164450
TTM_SCR_SS	169500
TTM_RAT_ACV	10047

