VERSION	0.00.00	1.03.00
FES_MODE	0
BPM_DEF	200.000	200.000	200.000	200.000
MET_DEF	4	4
RESOLUTION	384
CLK_DEF	384
COMPATIBLE_CODE	MA2

BPM	0	0	200.000
MET	0	0	4	4

TAP	3	96	2
TAP	3	288	2
TAP	4	96	2
TAP	5	96	1
TAP	5	288	1
TAP	6	96	1
TAP	7	96	0
TAP	7	288	0
TAP	8	96	0
TAP	9	96	7
TAP	9	288	7
TAP	10	96	7
TAP	11	96	6
TAP	11	288	6
TAP	12	96	7
TAP	12	288	7
TAP	13	96	0
TAP	13	288	0
TAP	14	96	1
TAP	14	288	1
TAP	15	96	2
TAP	15	288	2
TAP	16	96	3
TAP	16	288	3
TAP	17	96	4
TAP	17	288	4
TAP	18	96	5
TAP	18	288	5
TAP	19	96	6
TAP	19	192	6
TAP	19	288	6
TAP	20	96	5
TAP	20	192	5
TAP	20	288	5
TAP	21	96	4
TAP	21	192	4
TAP	21	288	4
TAP	22	96	3
TAP	22	192	3
TAP	22	288	3
TAP	23	96	2
TAP	23	192	2
TAP	23	288	2
TAP	24	96	1
TAP	24	192	1
TAP	24	288	1
TAP	25	96	0
TAP	25	192	0
TAP	25	288	0
TAP	26	96	7
TAP	26	192	7
TAP	26	288	7
TAP	27	96	0
STR	27	192	0
SI_	27	192	0	96	288	3
TAP	29	96	7
STR	29	192	7
SI_	29	192	7	96	288	4
TAP	31	96	0
STR	31	192	0
SI_	31	192	0	96	288	4
TAP	33	192	4
TAP	34	0	3
TAP	34	0	4
TAP	34	192	3
TAP	34	192	4
HLD	35	0	5	384
HLD	37	0	6	384
HLD	39	0	7	384
TAP	41	0	0
TAP	41	192	0
BRK	42	0	0
BRK	42	0	7
TAP	43	96	0
TAP	43	192	0
TAP	43	288	0
TAP	44	96	1
TAP	44	192	1
TAP	44	288	1
TAP	45	96	2
TAP	45	192	2
TAP	45	288	2
TAP	46	96	3
TAP	46	96	4
TAP	46	192	3
TAP	46	192	4
TAP	46	288	3
TAP	46	288	4
TAP	47	96	4
TAP	47	192	4
TAP	47	288	4
TAP	48	96	5
TAP	48	192	5
TAP	48	288	5
TAP	49	96	6
TAP	49	192	6
TAP	49	288	6
TAP	50	96	0
TAP	50	96	7
TAP	50	192	0
TAP	50	192	7
TAP	50	288	0
TAP	50	288	7
TAP	51	96	0
TAP	51	192	0
TAP	51	288	0
TAP	52	96	7
TAP	52	192	7
TAP	52	288	7
TAP	53	96	6
TAP	53	192	6
TAP	53	288	6
TAP	54	96	4
TAP	54	96	5
TAP	54	192	4
TAP	54	192	5
TAP	54	288	4
TAP	54	288	5
TAP	55	96	4
TAP	55	192	4
TAP	55	288	4
TAP	56	96	3
TAP	56	192	3
TAP	56	288	3
TAP	57	96	2
TAP	57	192	2
TAP	57	288	2
BRK	58	0	2
TAP	59	96	0
TAP	59	192	0
TAP	59	288	0
TAP	60	96	1
TAP	60	192	1
TAP	60	288	1
STR	61	0	1
SI_	61	0	1	96	288	5
TAP	63	96	7
TAP	63	192	7
TAP	63	288	7
TAP	64	96	6
TAP	64	192	6
TAP	64	288	6
STR	65	0	6
SI_	65	0	6	96	288	2
TAP	67	96	3
TAP	67	192	3
TAP	67	288	3
TAP	68	96	4
TAP	68	192	4
TAP	68	288	4
STR	69	0	4
SI_	69	0	4	96	288	7
TAP	71	96	0
TAP	71	192	0
TAP	71	288	0
TAP	72	96	7
TAP	72	192	7
TAP	72	288	7
TAP	73	96	6
TAP	73	192	6
TAP	73	288	6
TAP	74	96	5
TAP	74	192	5
STR	74	288	5
SI_	74	288	5	96	384	1

T_REC_TAP	145
T_REC_BRK	3
T_REC_XTP	0
T_REC_HLD	3
T_REC_XHO	0
T_REC_STR	7
T_REC_BST	0
T_REC_XST	0
T_REC_TTP	0
T_REC_THO	0
T_REC_SLD	7
T_REC_ALL	165
T_NUM_TAP	152
T_NUM_BRK	3
T_NUM_HLD	3
T_NUM_SLD	7
T_NUM_ALL	165
T_JUDGE_TAP	155
T_JUDGE_HLD	24
T_JUDGE_SLD	7
T_JUDGE_ALL	186
TTM_EACHPAIRS	12
TTM_SCR_TAP	76000
TTM_SCR_BRK	7800
TTM_SCR_HLD	3000
TTM_SCR_SLD	10500
TTM_SCR_ALL	97300
TTM_SCR_S	94100
TTM_SCR_SS	97000
TTM_RAT_ACV	10030

