VERSION	0.00.00	1.03.00
FES_MODE	0
BPM_DEF	195.000	195.000	195.000	195.000
MET_DEF	4	4
RESOLUTION	384
CLK_DEF	384
COMPATIBLE_CODE	MA2

BPM	0	0	195.000
MET	0	0	4	4

TAP	5	0	4
TAP	5	96	4
TAP	5	192	4
TAP	5	240	3
TAP	5	288	2
TAP	5	288	5
TAP	6	0	1
STR	6	0	4
SCR	6	0	4	96	48	7
TAP	6	96	2
STR	6	144	2
SI_	6	144	2	96	48	7
TAP	6	240	5
TAP	6	288	5
TAP	6	336	4
STR	7	0	3
SCL	7	0	3	96	48	0
TAP	7	0	6
TAP	7	96	5
STR	7	144	5
SI_	7	144	5	96	48	1
TAP	7	240	2
TAP	7	288	2
TAP	7	336	3
TAP	8	0	1
STR	8	0	4
SCR	8	0	4	96	48	7
TAP	8	96	2
STR	8	144	2
SI_	8	144	2	96	48	7
TAP	8	240	5
TAP	8	288	5
TAP	8	336	4
STR	9	0	3
SCL	9	0	3	96	48	0
TAP	9	0	6
TAP	9	96	7
STR	9	144	7
SI_	9	144	7	96	48	3
TAP	9	240	0
TAP	9	288	0
STR	10	0	3
SCL	10	0	3	96	48	0
TAP	10	0	6
TAP	10	96	5
STR	10	144	5
SI_	10	144	5	96	48	0
TAP	10	240	2
TAP	10	288	2
TAP	10	336	3
TAP	11	0	1
STR	11	0	4
SCR	11	0	4	96	48	7
TAP	11	96	2
STR	11	144	2
SI_	11	144	2	96	48	6
TAP	11	240	5
TAP	11	288	5
TAP	11	336	4
STR	12	0	3
SCL	12	0	3	96	48	0
TAP	12	0	6
TAP	12	96	5
STR	12	144	5
SI_	12	144	5	96	48	0
TAP	12	240	2
TAP	12	288	2
TAP	12	336	3
TAP	13	0	1
STR	13	0	4
SCR	13	0	4	96	48	7
TAP	13	96	0
STR	13	144	0
SI_	13	144	0	96	48	4
TAP	13	240	7
TAP	13	288	7
STR	14	0	2
SI_	14	0	2	96	48	5
TAP	14	0	4
TAP	14	48	4
TAP	14	96	2
STR	14	192	2
SI_	14	192	2	96	48	5
TAP	14	192	5
TAP	14	240	5
TAP	14	288	2
STR	15	0	2
SI_	15	0	2	96	48	5
TAP	15	0	6
TAP	15	48	6
TAP	15	96	2
STR	15	192	2
SI_	15	192	2	96	48	5
TAP	15	192	7
TAP	15	240	7
TAP	15	288	2
TAP	16	0	0
STR	16	0	2
SI_	16	0	2	96	48	5
TAP	16	48	0
TAP	16	96	2
TAP	16	192	1
STR	16	192	2
SI_	16	192	2	96	48	5
TAP	16	240	1
TAP	16	288	2
STR	17	0	7
SI_	17	0	7	96	48	4
TAP	17	48	5
TAP	17	96	4
TAP	17	144	3
STR	17	192	2
SI_	17	192	2	96	48	7
TAP	18	0	3
STR	18	0	5
SI_	18	0	5	96	48	2
TAP	18	48	3
TAP	18	96	5
TAP	18	192	2
STR	18	192	5
SI_	18	192	5	96	48	2
TAP	18	240	2
TAP	18	288	5
TAP	19	0	1
STR	19	0	5
SI_	19	0	5	96	48	2
TAP	19	48	1
TAP	19	96	5
TAP	19	192	0
STR	19	192	5
SI_	19	192	5	96	48	2
TAP	19	240	0
TAP	19	288	5
STR	20	0	5
SI_	20	0	5	96	48	2
TAP	20	0	7
TAP	20	48	7
TAP	20	96	5
STR	20	192	5
SI_	20	192	5	96	48	2
TAP	20	192	6
TAP	20	240	6
TAP	20	288	5
TAP	21	0	0
TAP	21	48	1
TAP	21	96	2
HLD	21	144	3	96
TAP	21	240	7
TAP	22	0	3
TAP	22	48	4
TAP	22	96	2
STR	22	144	3
SCR	22	144	3	96	48	5
TAP	22	240	2
TAP	22	288	1
TAP	22	336	2
TAP	23	0	4
TAP	23	48	3
TAP	23	96	5
STR	23	144	4
SCL	23	144	4	96	48	2
TAP	23	240	5
TAP	23	288	6
TAP	23	336	5
TAP	24	0	3
TAP	24	48	4
TAP	24	96	2
STR	24	144	3
SCR	24	144	3	96	48	5
TAP	24	240	2
TAP	24	288	1
TAP	24	336	2
TAP	25	0	4
TAP	25	48	3
TAP	25	96	5
STR	25	144	4
SI_	25	144	4	96	48	0
TAP	25	240	7
TAP	25	288	7
TAP	26	0	4
TAP	26	48	3
TAP	26	96	5
STR	26	144	4
SCL	26	144	4	96	48	2
TAP	26	240	5
TAP	26	288	6
TAP	26	336	5
TAP	27	0	3
TAP	27	48	4
TAP	27	96	2
STR	27	144	3
SCR	27	144	3	96	48	5
TAP	27	240	2
TAP	27	288	1
TAP	27	336	2
TAP	28	0	4
TAP	28	48	3
HLD	28	96	2	192
HLD	28	96	5	192
TAP	29	0	2
TAP	29	0	5
STR	29	48	1
SCR	29	48	1	96	48	3
STR	29	48	6
SCL	29	48	6	96	48	4
TAP	29	240	2
TAP	29	240	5
TAP	29	288	2
TAP	29	288	5
TAP	29	336	2
TAP	29	336	5
HLD	30	0	3	96
TAP	30	0	4
TAP	30	96	7
TAP	30	144	7
HLD	30	192	0	96
TAP	30	240	4
TAP	30	288	4
HLD	31	0	3	96
TAP	31	0	7
TAP	31	96	6
TAP	31	144	6
HLD	31	192	0	96
TAP	31	240	3
TAP	31	288	3
HLD	32	0	3	96
TAP	32	0	5
TAP	32	96	7
TAP	32	144	7
HLD	32	192	0	96
TAP	32	240	4
TAP	32	288	4
HLD	33	0	3	96
TAP	33	0	6
TAP	33	96	5
TAP	33	144	5
HLD	33	192	0	96
TAP	33	240	3
TAP	33	288	3
TAP	34	0	1
HLD	34	0	4	96
TAP	34	96	2
TAP	34	144	2
HLD	34	192	7	96
TAP	34	240	3
TAP	34	288	3
TAP	35	0	0
HLD	35	0	4	96
TAP	35	96	2
TAP	35	144	2
HLD	35	192	7	96
TAP	35	240	4
TAP	35	288	4
TAP	36	0	2
HLD	36	0	4	96
TAP	36	96	3
TAP	36	144	3
HLD	36	192	7	96
TAP	36	240	0
STR	36	288	0
SUL	36	288	0	96	288	7
HLD	37	0	4	288
STR	38	0	3
SCL	38	0	3	96	2112	4
HLD	38	0	5	288
HLD	39	0	4	288
HLD	40	0	3	288
HLD	41	0	2	288
HLD	42	0	1	288
HLD	43	0	0	288
TAP	44	48	4
TAP	44	48	5
TAP	44	96	3
TAP	44	96	6
TAP	44	192	2
TAP	44	192	3
TAP	44	240	1
TAP	44	240	4
TAP	44	336	3
TAP	44	336	7
TAP	45	0	2
TAP	45	0	6
TAP	45	48	1
TAP	45	48	5
STR	45	96	0
SI_	45	96	0	96	48	3
STR	45	96	4
SI_	45	96	4	96	48	7
BRK	45	288	1
BRK	45	288	5
STR	46	0	3
SCL	46	0	3	96	48	0
TAP	46	0	4
TAP	46	96	7
TAP	46	144	6
TAP	46	192	5
STR	46	240	4
SCR	46	240	4	96	48	7
STR	46	336	1
SCR	46	336	1	96	48	4
STR	47	48	6
SI_	47	48	6	96	48	2
STR	47	144	4
SI_	47	144	4	96	48	7
TAP	47	240	0
TAP	47	288	0
TAP	48	0	3
STR	48	0	4
SCR	48	0	4	96	48	7
TAP	48	96	0
TAP	48	144	1
TAP	48	192	2
STR	48	240	3
SCL	48	240	3	96	48	0
STR	48	336	6
SCL	48	336	6	96	48	3
STR	49	48	1
SI_	49	48	1	96	48	5
STR	49	144	3
SI_	49	144	3	96	48	0
TAP	49	240	7
TAP	49	288	7
TAP	50	0	2
TAP	50	48	3
TAP	50	96	4
STR	50	144	5
SCL	50	144	5	96	48	2
TAP	50	240	0
STR	50	288	0
SI_	50	288	0	96	48	3
TAP	51	0	6
TAP	51	48	5
TAP	51	96	4
STR	51	144	3
SCL	51	144	3	96	48	0
TAP	51	240	7
TAP	51	288	7
TAP	51	336	0
TAP	52	0	1
TAP	52	0	6
TAP	52	96	0
TAP	52	96	1
TAP	52	144	2
TAP	52	144	7
TAP	52	192	3
TAP	52	192	6
TAP	52	240	4
STR	52	240	5
SCR	52	240	5	96	48	0
STR	52	336	3
SI_	52	336	3	96	48	7
STR	53	48	6
SI_	53	48	6	96	48	1
TAP	53	96	6
STR	53	144	2
SI_	53	144	2	96	48	6
TAP	53	192	2
STR	53	240	5
SCR	53	240	5	96	48	0
TAP	53	288	5
TAP	53	336	3
STR	54	0	2
SCL	54	0	2	96	48	7
TAP	54	96	6
TAP	54	144	5
TAP	54	192	4
STR	54	240	3
SCR	54	240	3	96	48	6
STR	54	336	0
SCR	54	336	0	96	48	3
STR	55	48	5
SI_	55	48	5	96	48	1
STR	55	144	4
SI_	55	144	4	96	48	7
TAP	55	240	0
TAP	55	288	0
TAP	56	0	4
STR	56	0	5
SCR	56	0	5	96	48	0
TAP	56	96	1
TAP	56	144	2
TAP	56	192	3
STR	56	240	4
SCL	56	240	4	96	48	1
STR	56	336	7
SCL	56	336	7	96	48	4
STR	57	48	2
SI_	57	48	2	96	48	6
STR	57	144	3
SI_	57	144	3	96	48	0
TAP	57	240	7
TAP	57	288	7
TAP	58	0	7
TAP	58	48	0
TAP	58	96	1
STR	58	144	2
SCL	58	144	2	96	48	7
TAP	58	240	5
STR	58	288	5
SI_	58	288	5	96	48	0
STR	59	0	1
SI_	59	0	1	96	48	5
TAP	59	96	7
TAP	59	144	7
BST	59	240	0
SI_	59	240	0	96	48	3
TAP	59	288	3
TAP	59	336	0
BST	60	0	7
SI_	60	0	7	96	48	4
TAP	60	48	4
TAP	60	96	7
BST	60	144	0
SI_	60	144	0	96	48	3
TAP	60	192	3
TAP	60	240	0
BST	60	288	7
SI_	60	288	7	96	48	4
TAP	60	336	4
TAP	61	0	7
STR	61	48	0
SI_	61	48	0	96	48	4
TAP	61	144	0
TAP	61	144	7
TAP	61	240	1
TAP	61	240	6
TAP	61	288	1
TAP	61	288	6
TAP	62	0	3
TAP	62	0	7
TAP	62	96	1
TAP	62	144	1
TAP	62	192	2
STR	62	240	1
SI_	62	240	1	96	48	6
STR	62	336	5
SI_	62	336	5	96	48	2
TAP	63	48	1
TAP	63	96	1
TAP	63	192	1
TAP	63	192	2
TAP	63	240	0
TAP	63	240	3
TAP	63	288	1
TAP	63	288	2
TAP	63	336	0
TAP	63	336	3
TAP	64	0	4
TAP	64	96	6
TAP	64	144	6
TAP	64	192	5
STR	64	240	6
SI_	64	240	6	96	48	1
STR	64	336	2
SI_	64	336	2	96	48	5
TAP	65	48	6
STR	65	96	6
SF_	65	96	6	96	96	2
TAP	66	0	0
TAP	66	0	4
TAP	66	96	6
TAP	66	144	6
TAP	66	192	5
STR	66	240	6
SI_	66	240	6	96	48	1
STR	66	336	2
SI_	66	336	2	96	48	5
TAP	67	48	6
TAP	67	96	6
TAP	67	192	5
TAP	67	192	6
TAP	67	240	4
TAP	67	240	7
TAP	67	288	5
TAP	67	288	6
TAP	67	336	4
TAP	67	336	7
TAP	68	0	3
TAP	68	96	3
TAP	68	144	4
TAP	68	240	0
TAP	68	240	7
HLD	68	336	3	144
HLD	68	336	4	96
TAP	69	192	3
STR	69	288	4
SCR	69	288	4	96	2496	3
HLD	70	0	2	288
HLD	71	0	3	288
HLD	72	0	4	288
HLD	73	0	5	288
STR	74	0	4
SI_	74	0	4	96	192	7
STR	75	0	7
SI_	75	0	7	96	192	4
HLD	76	0	7	192
HLD	76	336	0	96
HLD	76	336	7	96
BRK	77	96	0
BRK	77	96	7
TAP	77	108	1
TAP	77	108	6
TAP	77	120	2
TAP	77	120	5
BRK	77	192	0
BRK	77	192	7
TAP	77	204	1
TAP	77	204	6
TAP	77	216	2
TAP	77	216	5
BRK	77	288	0
BRK	77	288	7
TAP	77	300	1
TAP	77	300	6
TAP	77	312	2
TAP	77	312	5
STR	78	0	0
SCR	78	0	0	96	48	3
TAP	78	0	7
TAP	78	96	4
TAP	78	144	5
TAP	78	192	6
STR	78	240	7
SCL	78	240	7	96	48	4
STR	78	336	2
SI_	78	336	2	96	48	6
STR	79	48	7
SI_	79	48	7	96	48	3
STR	79	144	0
SCL	79	144	0	96	48	5
TAP	79	240	4
TAP	79	288	4
TAP	80	0	0
STR	80	0	7
SCL	80	0	7	96	48	4
TAP	80	96	3
TAP	80	144	2
TAP	80	192	1
STR	80	240	0
SCR	80	240	0	96	48	3
STR	80	336	5
SI_	80	336	5	96	48	1
STR	81	48	0
SI_	81	48	0	96	48	4
STR	81	144	7
SCR	81	144	7	96	48	2
TAP	81	240	3
TAP	81	288	3
TAP	82	0	1
TAP	82	48	0
TAP	82	96	7
STR	82	144	6
SI_	82	144	6	96	48	1
TAP	82	240	3
STR	82	288	3
SI_	82	288	3	96	48	0
TAP	83	0	5
TAP	83	48	6
TAP	83	96	7
STR	83	144	1
SI_	83	144	1	96	48	6
TAP	83	240	4
TAP	83	288	4
TAP	83	336	3
TAP	84	0	2
TAP	84	0	5
TAP	84	96	0
TAP	84	96	1
TAP	84	144	2
TAP	84	144	7
TAP	84	192	3
TAP	84	192	6
TAP	84	240	4
STR	84	240	5
SCR	84	240	5	96	48	0
STR	84	336	3
SI_	84	336	3	96	48	7
STR	85	48	5
SI_	85	48	5	96	48	1
TAP	85	96	5
STR	85	144	2
SCL	85	144	2	96	48	7
TAP	85	192	2
STR	85	240	3
SI_	85	240	3	96	48	7
TAP	85	288	3
TAP	85	336	0
STR	86	0	1
SCR	86	0	1	96	48	4
TAP	86	96	5
TAP	86	144	6
TAP	86	192	7
STR	86	240	0
SI_	86	240	0	96	48	5
STR	86	336	3
SCL	86	336	3	96	48	0
STR	87	48	6
SCL	87	48	6	96	48	3
STR	87	144	7
SI_	87	144	7	96	48	4
TAP	87	240	3
TAP	87	288	3
STR	88	0	6
SCL	88	0	6	96	48	3
TAP	88	0	7
TAP	88	96	2
TAP	88	144	1
TAP	88	192	0
STR	88	240	7
SI_	88	240	7	96	48	2
STR	88	336	4
SCR	88	336	4	96	48	7
STR	89	48	1
SCR	89	48	1	96	48	4
STR	89	144	0
SI_	89	144	0	96	48	3
TAP	89	240	4
TAP	89	288	4
TAP	90	0	4
TAP	90	48	3
TAP	90	96	2
STR	90	144	1
SCR	90	144	1	96	48	4
TAP	90	240	6
STR	90	288	6
SCR	90	288	6	96	48	1
STR	91	0	2
SCR	91	0	2	96	48	5
TAP	91	96	6
TAP	91	144	6
BST	91	240	7
SI_	91	240	7	96	48	4
TAP	91	288	5
TAP	91	336	7
BST	92	0	0
SI_	92	0	0	96	48	3
TAP	92	48	2
TAP	92	96	0
BST	92	144	7
SI_	92	144	7	96	48	4
TAP	92	192	5
TAP	92	240	7
TAP	92	288	0
TAP	92	336	7
BST	93	0	0
SI_	93	0	0	96	48	3
TAP	93	48	2
TAP	93	96	0
BST	93	144	7
SI_	93	144	7	96	48	4
TAP	93	192	5
TAP	93	240	7
TAP	93	288	0
TAP	93	336	7
BST	94	0	0
SCR	94	0	0	96	48	3
TAP	94	48	2
TAP	94	96	0
BST	94	144	7
SCL	94	144	7	96	48	4
TAP	94	192	5
TAP	94	240	7
BST	94	288	0
SI_	94	288	0	96	48	4
TAP	94	336	2
TAP	95	0	0
HLD	95	0	7	288
BRK	95	288	0
TAP	96	0	3
TAP	96	0	4
TAP	96	96	1
TAP	96	144	3
TAP	96	192	4
STR	96	240	6
SI_	96	240	6	96	48	1
STR	96	336	3
SI_	96	336	3	96	48	0
TAP	97	48	6
STR	97	96	6
SSL	97	96	6	96	96	2
STR	97	192	2
SSL	97	192	2	96	96	6
TAP	98	0	7
TAP	98	96	6
TAP	98	144	4
TAP	98	192	3
STR	98	240	1
SI_	98	240	1	96	48	6
STR	98	336	4
SI_	98	336	4	96	48	7
TAP	99	48	0
STR	99	96	0
SF_	99	96	0	96	96	4
TAP	100	0	3
TAP	100	0	4
TAP	100	96	6
TAP	100	144	4
TAP	100	192	3
STR	100	240	2
SI_	100	240	2	96	48	5
STR	100	336	4
SCR	100	336	4	96	48	7
TAP	101	48	1
STR	101	96	1
SSR	101	96	1	96	96	5
STR	101	192	5
SSR	101	192	5	96	96	1
TAP	102	0	0
TAP	102	96	1
TAP	102	144	3
TAP	102	192	4
STR	102	240	6
SI_	102	240	6	96	48	1
STR	102	336	2
SI_	102	336	2	96	48	5
TAP	103	48	7
TAP	103	96	7
TAP	103	144	0
BRK	103	192	1
BST	103	192	6
SI_	103	192	6	96	48	2

T_REC_TAP	395
T_REC_BRK	10
T_REC_XTP	0
T_REC_HLD	34
T_REC_XHO	0
T_REC_STR	128
T_REC_BST	13
T_REC_XST	0
T_REC_TTP	0
T_REC_THO	0
T_REC_SLD	141
T_REC_ALL	721
T_NUM_TAP	523
T_NUM_BRK	23
T_NUM_HLD	34
T_NUM_SLD	141
T_NUM_ALL	721
T_JUDGE_TAP	546
T_JUDGE_HLD	123
T_JUDGE_SLD	141
T_JUDGE_ALL	810
TTM_EACHPAIRS	89
TTM_SCR_TAP	261500
TTM_SCR_BRK	59800
TTM_SCR_HLD	34000
TTM_SCR_SLD	211500
TTM_SCR_ALL	566800
TTM_SCR_S	547600
TTM_SCR_SS	564500
TTM_RAT_ACV	10040

