VERSION	0.00.00	1.03.00
FES_MODE	0
BPM_DEF	195.000	195.000	195.000	195.000
MET_DEF	4	4
RESOLUTION	384
CLK_DEF	384
COMPATIBLE_CODE	MA2

BPM	0	0	195.000
MET	0	0	4	4

HLD	2	0	2	768
TAP	2	96	3
TAP	2	288	3
TAP	3	96	3
TAP	3	288	3
HLD	4	0	5	288
TAP	4	96	4
TAP	4	288	4
STR	5	0	0
SI_	5	0	0	96	48	3
STR	5	0	7
SI_	5	0	7	96	48	4
TAP	5	192	1
TAP	5	192	6
TAP	5	240	1
TAP	5	240	6
BRK	5	288	0
BRK	5	288	7
TAP	6	0	2
TAP	6	48	3
TAP	6	96	1
TAP	6	192	5
TAP	6	240	4
TAP	6	288	6
TAP	7	0	2
TAP	7	48	3
STR	7	96	1
SCL	7	96	1	96	96	5
TAP	8	0	5
TAP	8	48	4
TAP	8	96	6
TAP	8	192	2
TAP	8	240	3
TAP	8	288	1
TAP	9	0	5
TAP	9	48	4
STR	9	96	6
SCR	9	96	6	96	96	2
TAP	10	0	1
TAP	10	48	0
TAP	10	96	2
TAP	10	192	6
TAP	10	240	7
TAP	10	288	5
TAP	11	0	1
TAP	11	48	0
STR	11	96	2
SCL	11	96	2	96	96	5
TAP	12	0	6
TAP	12	48	7
TAP	12	96	5
TAP	12	192	1
TAP	12	240	0
TAP	12	288	2
TAP	13	0	1
TAP	13	0	5
STR	13	96	2
SUL	13	96	2	96	96	6
STR	13	96	6
SUL	13	96	6	96	96	2
TAP	14	0	0
TAP	14	0	1
TAP	14	48	0
TAP	14	48	1
TAP	14	96	0
TAP	14	96	1
TAP	14	192	6
TAP	14	192	7
TAP	14	240	6
TAP	14	240	7
TAP	14	288	6
TAP	14	288	7
TAP	15	0	0
TAP	15	0	1
TAP	15	48	0
TAP	15	48	1
TAP	15	96	0
TAP	15	96	1
TAP	15	192	6
TAP	15	192	7
TAP	15	240	6
TAP	15	240	7
TAP	15	288	6
TAP	15	288	7
TAP	16	0	0
TAP	16	0	1
TAP	16	48	0
TAP	16	48	1
TAP	16	96	0
TAP	16	96	1
TAP	16	192	6
TAP	16	192	7
TAP	16	240	6
TAP	16	240	7
TAP	16	288	6
TAP	16	288	7
STR	17	0	0
SXR	17	0	0	96	192	5
STR	17	0	1
SXL	17	0	1	96	192	4
TAP	18	0	5
TAP	18	0	6
TAP	18	48	5
TAP	18	48	6
TAP	18	96	5
TAP	18	96	6
TAP	18	192	1
TAP	18	192	2
TAP	18	240	1
TAP	18	240	2
TAP	18	288	1
TAP	18	288	2
TAP	19	0	5
TAP	19	0	6
TAP	19	48	5
TAP	19	48	6
TAP	19	96	5
TAP	19	96	6
TAP	19	192	1
TAP	19	192	2
TAP	19	240	1
TAP	19	240	2
TAP	19	288	1
TAP	19	288	2
TAP	20	0	5
TAP	20	0	6
TAP	20	48	5
TAP	20	48	6
TAP	20	96	5
TAP	20	96	6
TAP	20	192	1
TAP	20	192	2
TAP	20	240	1
TAP	20	240	2
TAP	20	288	1
TAP	20	288	2
STR	21	0	6
SXR	21	0	6	96	192	3
STR	21	0	7
SXL	21	0	7	96	192	2
HLD	22	0	1	96
TAP	22	96	0
HLD	22	192	2	96
TAP	22	288	3
HLD	23	0	5	96
TAP	23	96	4
TAP	23	192	6
TAP	23	192	7
TAP	23	288	0
TAP	23	288	1
HLD	24	0	6	96
TAP	24	96	7
HLD	24	192	5	96
TAP	24	288	4
TAP	25	0	2
TAP	25	0	3
STR	25	96	4
SCL	25	96	4	96	96	1
STR	25	96	5
SCR	25	96	5	96	96	0
TAP	25	144	4
TAP	25	144	5
HLD	26	0	2	96
TAP	26	96	3
HLD	26	192	1	96
TAP	26	288	0
HLD	27	0	6	96
TAP	27	96	7
HLD	27	192	5	96
TAP	27	288	4
STR	28	0	2
SCL	28	0	2	96	192	5
STR	28	0	3
SUL	28	0	3	96	192	4
TAP	29	0	2
TAP	29	0	3
TAP	29	96	4
TAP	29	96	5
TAP	29	192	3
TAP	29	192	4
TAP	29	240	3
TAP	29	240	4
TAP	29	288	3
TAP	29	288	4
TAP	30	0	6
TAP	30	96	6
TAP	30	96	7
TAP	30	192	5
TAP	30	288	4
TAP	30	288	5
TAP	31	0	2
TAP	31	96	2
TAP	31	96	3
TAP	31	192	0
TAP	31	192	1
TAP	31	288	6
TAP	31	288	7
TAP	32	0	1
TAP	32	96	0
TAP	32	96	1
TAP	32	192	2
TAP	32	288	2
TAP	32	288	3
TAP	33	0	4
TAP	33	0	5
STR	33	96	2
SCL	33	96	2	96	96	7
STR	33	96	3
SCR	33	96	3	96	96	6
TAP	33	144	2
TAP	33	144	3
TAP	34	0	5
TAP	34	96	4
TAP	34	96	5
TAP	34	192	6
TAP	34	288	5
TAP	34	288	7
TAP	35	0	2
TAP	35	96	2
TAP	35	96	3
TAP	35	192	1
TAP	35	288	0
TAP	35	288	2
STR	36	0	4
SUR	36	0	4	96	192	3
STR	36	0	5
SCR	36	0	5	96	192	2
TAP	37	0	4
TAP	37	0	6
TAP	37	96	1
TAP	37	96	3
TAP	37	192	0
TAP	37	192	7
TAP	37	240	0
TAP	37	240	7
TAP	37	288	0
TAP	37	288	7
STR	38	0	3
SXR	38	0	3	96	480	0
HLD	38	0	4	768
STR	40	0	1
SCL	40	0	1	96	192	6
TAP	41	0	3
TAP	41	96	4
TAP	41	192	5
TAP	41	288	6
HLD	42	0	3	672
STR	42	0	7
SXR	42	0	7	96	480	4
TAP	44	48	0
TAP	44	48	2
TAP	44	96	0
TAP	44	96	2
TAP	44	192	5
TAP	44	192	7
TAP	44	240	5
TAP	44	240	7
TAP	44	336	3
TAP	44	336	4
TAP	45	0	3
TAP	45	0	4
BST	45	96	1
SLR	45	96	1	96	144	0
BST	45	96	6
SLL	45	96	6	96	144	7
BRK	46	0	1
BRK	46	0	6
TAP	46	96	3
TAP	46	144	3
TAP	46	192	5
TAP	46	240	4
TAP	46	240	6
TAP	46	336	1
TAP	46	336	3
STR	47	48	0
SI_	47	48	0	96	48	4
STR	47	48	7
SI_	47	48	7	96	48	5
TAP	47	288	2
TAP	47	288	6
TAP	48	0	0
TAP	48	0	1
TAP	48	96	4
TAP	48	144	4
TAP	48	192	2
TAP	48	240	1
TAP	48	240	3
STR	48	336	7
SI_	48	336	7	96	48	4
STR	49	48	0
SI_	49	48	0	96	48	3
BRK	49	144	7
TAP	49	288	5
TAP	49	336	4
TAP	50	0	6
TAP	50	48	2
TAP	50	96	3
TAP	50	144	1
TAP	50	144	4
TAP	50	240	7
TAP	50	288	7
TAP	50	336	0
TAP	51	0	5
TAP	51	48	5
TAP	51	96	4
TAP	51	144	3
TAP	51	144	6
TAP	51	240	0
TAP	51	288	0
TAP	51	336	7
TAP	52	0	1
TAP	52	0	6
TAP	52	96	7
TAP	52	144	7
TAP	52	192	0
STR	52	240	0
SI_	52	240	0	96	48	4
TAP	53	48	2
TAP	53	48	6
TAP	53	96	4
TAP	53	144	2
TAP	53	144	6
TAP	53	192	4
TAP	53	240	2
TAP	53	240	6
TAP	53	288	4
TAP	53	336	2
TAP	53	336	6
BRK	54	0	0
TAP	54	96	4
TAP	54	144	4
TAP	54	192	2
TAP	54	240	1
TAP	54	240	3
TAP	54	336	4
TAP	54	336	6
STR	55	48	0
SI_	55	48	0	96	48	2
STR	55	48	7
SI_	55	48	7	96	48	3
TAP	55	288	1
TAP	55	288	5
TAP	56	0	6
TAP	56	0	7
TAP	56	96	3
TAP	56	144	3
TAP	56	192	5
TAP	56	240	4
TAP	56	240	6
STR	56	336	0
SI_	56	336	0	96	48	3
STR	57	48	7
SI_	57	48	7	96	48	4
BRK	57	144	0
TAP	57	288	2
TAP	57	336	3
TAP	58	0	1
TAP	58	48	5
TAP	58	96	4
TAP	58	144	3
TAP	58	144	6
TAP	58	240	0
TAP	58	288	0
TAP	58	336	7
TAP	59	0	2
TAP	59	48	2
TAP	59	96	3
TAP	59	144	1
TAP	59	144	4
TAP	59	240	0
TAP	59	240	7
TAP	59	288	6
TAP	59	336	6
TAP	60	0	0
TAP	60	0	7
TAP	60	48	1
TAP	60	96	1
TAP	60	144	0
TAP	60	144	7
TAP	60	192	6
TAP	60	240	6
TAP	60	288	0
TAP	60	288	7
TAP	60	336	1
TAP	61	0	1
BRK	61	48	0
BRK	61	48	7
BRK	61	144	3
BRK	61	144	4
BRK	61	240	1
BRK	61	240	6
BRK	61	288	1
BRK	61	288	6
TAP	62	0	2
TAP	62	0	3
TAP	62	96	3
TAP	62	96	4
HLD	62	192	4	96
HLD	62	192	5	96
TAP	62	336	4
TAP	62	336	5
STR	63	48	1
SUL	63	48	1	96	144	5
STR	63	48	2
SXL	63	48	2	96	144	4
TAP	64	0	6
TAP	64	0	7
TAP	64	96	0
TAP	64	96	7
HLD	64	192	0	96
HLD	64	192	1	96
TAP	64	336	0
TAP	64	336	1
TAP	65	48	5
TAP	65	48	6
TAP	65	144	2
TAP	65	144	3
TAP	65	192	2
TAP	65	192	3
TAP	66	0	4
TAP	66	0	5
TAP	66	96	3
TAP	66	96	4
HLD	66	192	2	96
HLD	66	192	3	96
TAP	66	336	2
TAP	66	336	3
STR	67	48	5
SXR	67	48	5	96	144	3
STR	67	48	6
SUR	67	48	6	96	144	2
TAP	68	0	0
TAP	68	0	1
TAP	68	96	6
TAP	68	96	7
TAP	68	144	6
TAP	68	144	7
TAP	68	240	2
TAP	68	240	5
STR	68	336	3
SI_	68	336	3	96	96	7
STR	68	336	4
SI_	68	336	4	96	96	0
HLD	70	0	2	384
HLD	71	0	3	384
HLD	72	0	4	384
HLD	73	0	5	384
STR	74	0	6
SCR	74	0	6	96	192	3
STR	75	0	1
SCL	75	0	1	96	192	4
HLD	76	0	3	288
HLD	76	0	4	288
BRK	76	336	3
BRK	76	336	4
TAP	77	48	1
TAP	77	48	6
TAP	77	96	1
TAP	77	96	6
TAP	77	144	1
TAP	77	144	6
TAP	77	192	1
TAP	77	192	6
TAP	77	240	1
TAP	77	240	6
TAP	77	288	1
TAP	77	288	6
TAP	77	336	1
TAP	77	336	6
BRK	78	0	1
BRK	78	0	6
TAP	78	96	4
TAP	78	144	4
TAP	78	192	2
TAP	78	240	1
TAP	78	240	3
TAP	78	336	4
TAP	78	336	6
STR	79	48	0
SI_	79	48	0	96	48	5
STR	79	48	1
SI_	79	48	1	96	48	4
TAP	79	288	2
TAP	79	288	7
TAP	80	0	0
TAP	80	0	5
TAP	80	96	3
TAP	80	144	3
TAP	80	192	5
TAP	80	240	4
TAP	80	240	6
STR	80	336	0
SI_	80	336	0	96	48	4
STR	81	48	7
SI_	81	48	7	96	48	3
BRK	81	144	0
TAP	81	288	2
TAP	81	336	3
TAP	82	0	1
TAP	82	48	5
TAP	82	96	4
TAP	82	144	3
TAP	82	144	6
TAP	82	240	0
TAP	82	288	0
TAP	82	336	7
TAP	83	0	2
TAP	83	48	2
TAP	83	96	3
TAP	83	144	1
TAP	83	144	4
TAP	83	240	7
TAP	83	288	7
TAP	83	336	0
TAP	84	0	1
TAP	84	0	6
TAP	84	96	0
TAP	84	144	0
TAP	84	192	7
STR	84	240	7
SI_	84	240	7	96	48	3
TAP	85	48	1
TAP	85	48	5
TAP	85	96	3
TAP	85	144	1
TAP	85	144	5
TAP	85	192	3
TAP	85	240	1
TAP	85	240	5
TAP	85	288	3
TAP	85	336	1
TAP	85	336	5
BRK	86	0	7
TAP	86	96	3
TAP	86	144	3
TAP	86	192	5
TAP	86	240	4
TAP	86	240	6
TAP	86	336	1
TAP	86	336	3
STR	87	48	6
SI_	87	48	6	96	48	3
STR	87	48	7
SI_	87	48	7	96	48	2
TAP	87	288	0
TAP	87	288	5
TAP	88	0	2
TAP	88	0	7
TAP	88	96	4
TAP	88	144	4
TAP	88	192	2
TAP	88	240	1
TAP	88	240	3
STR	88	336	7
SCL	88	336	7	96	48	4
STR	89	48	0
SCR	89	48	0	96	48	3
BRK	89	144	7
TAP	89	288	5
TAP	89	336	4
TAP	90	0	6
TAP	90	48	2
TAP	90	96	3
TAP	90	144	1
TAP	90	144	4
TAP	90	240	7
TAP	90	288	7
TAP	90	336	0
TAP	91	0	5
TAP	91	48	5
TAP	91	96	4
TAP	91	144	3
TAP	91	144	6
TAP	91	240	0
TAP	91	240	1
TAP	91	288	2
TAP	91	336	2
TAP	92	0	0
TAP	92	0	1
TAP	92	48	7
TAP	92	96	7
TAP	92	144	0
TAP	92	144	1
TAP	92	192	2
TAP	92	240	2
TAP	92	288	0
TAP	92	288	1
TAP	93	0	6
TAP	93	0	7
TAP	93	48	5
TAP	93	96	5
TAP	93	144	6
TAP	93	144	7
TAP	93	192	0
TAP	93	240	0
TAP	93	288	6
TAP	93	288	7
TAP	94	0	0
TAP	94	0	7
TAP	94	48	1
TAP	94	96	1
TAP	94	144	0
TAP	94	144	7
TAP	94	192	6
TAP	94	240	6
TAP	94	288	0
TAP	94	288	7
TAP	94	336	0
TAP	94	336	7
TAP	95	0	0
TAP	95	0	7
BRK	95	48	1
BRK	95	48	6
BRK	95	144	3
BRK	95	144	4
BRK	95	240	0
BRK	95	240	7
BRK	95	288	0
BRK	95	288	7
TAP	96	0	4
TAP	96	0	5
TAP	96	96	3
TAP	96	96	4
HLD	96	192	2	96
HLD	96	192	3	96
TAP	96	336	2
TAP	96	336	3
TAP	97	48	5
STR	97	48	6
SSL	97	48	6	96	144	2
TAP	98	0	0
TAP	98	0	1
TAP	98	96	0
TAP	98	96	7
HLD	98	192	6	96
HLD	98	192	7	96
TAP	98	336	6
TAP	98	336	7
TAP	99	48	1
TAP	99	48	2
TAP	99	144	4
TAP	99	144	5
TAP	99	192	4
TAP	99	192	5
TAP	100	0	2
TAP	100	0	3
TAP	100	96	3
TAP	100	96	4
HLD	100	192	4	96
HLD	100	192	5	96
TAP	100	336	4
TAP	100	336	5
STR	101	48	1
SSR	101	48	1	96	144	5
TAP	101	48	2
TAP	102	0	6
TAP	102	0	7
TAP	102	96	0
TAP	102	96	7
HLD	102	192	0	96
HLD	102	192	1	96
TAP	102	336	0
TAP	102	336	1
TAP	103	48	5
TAP	103	48	6
STR	103	144	2
SCL	103	144	2	96	240	5
STR	103	144	3
SUL	103	144	3	96	240	4
TAP	103	192	2
TAP	103	192	3

T_REC_TAP	500
T_REC_BRK	30
T_REC_XTP	0
T_REC_HLD	33
T_REC_XHO	0
T_REC_STR	52
T_REC_BST	2
T_REC_XST	0
T_REC_TTP	0
T_REC_THO	0
T_REC_SLD	54
T_REC_ALL	671
T_NUM_TAP	552
T_NUM_BRK	32
T_NUM_HLD	33
T_NUM_SLD	54
T_NUM_ALL	671
T_JUDGE_TAP	584
T_JUDGE_HLD	142
T_JUDGE_SLD	54
T_JUDGE_ALL	780
TTM_EACHPAIRS	207
TTM_SCR_TAP	276000
TTM_SCR_BRK	83200
TTM_SCR_HLD	33000
TTM_SCR_SLD	81000
TTM_SCR_ALL	473200
TTM_SCR_S	455900
TTM_SCR_SS	470000
TTM_RAT_ACV	10068

