VERSION	0.00.00	1.03.00
FES_MODE	0
BPM_DEF	195.000	195.000	195.000	195.000
MET_DEF	4	4
RESOLUTION	384
CLK_DEF	384
COMPATIBLE_CODE	MA2

BPM	0	0	195.000
MET	0	0	4	4

STR	2	0	0
SXL	2	0	0	96	960	3
STR	2	0	7
SXR	2	0	7	96	960	4
TAP	5	0	3
TAP	5	96	4
TAP	5	192	2
TAP	5	192	5
TAP	6	0	2
TAP	6	96	2
TAP	6	192	3
TAP	7	0	5
TAP	7	96	5
TAP	7	192	4
TAP	8	0	3
TAP	8	96	3
TAP	8	192	4
TAP	9	0	4
TAP	9	96	3
TAP	9	192	3
TAP	9	192	4
TAP	10	0	1
TAP	10	96	1
TAP	10	192	0
TAP	11	0	6
TAP	11	96	6
TAP	11	192	7
TAP	12	0	0
TAP	12	96	0
TAP	12	192	7
TAP	13	0	7
TAP	13	96	0
TAP	13	192	0
TAP	13	192	7
TAP	14	0	2
TAP	14	0	3
TAP	14	96	2
TAP	14	96	3
TAP	14	192	4
TAP	14	192	5
TAP	14	288	4
TAP	14	288	5
TAP	15	0	2
TAP	15	0	3
TAP	15	96	2
TAP	15	96	3
TAP	15	192	4
TAP	15	192	5
TAP	15	288	4
TAP	15	288	5
TAP	16	0	2
TAP	16	0	3
TAP	16	96	2
TAP	16	96	3
TAP	16	192	4
TAP	16	192	5
TAP	16	288	4
TAP	16	288	5
TAP	17	0	2
TAP	17	96	1
TAP	17	96	6
TAP	17	192	1
TAP	17	192	6
TAP	18	0	0
TAP	18	0	1
TAP	18	96	0
TAP	18	96	1
TAP	18	192	6
TAP	18	192	7
TAP	18	288	6
TAP	18	288	7
TAP	19	0	0
TAP	19	0	1
TAP	19	96	0
TAP	19	96	1
TAP	19	192	6
TAP	19	192	7
TAP	19	288	6
TAP	19	288	7
TAP	20	0	0
TAP	20	0	1
TAP	20	96	0
TAP	20	96	1
TAP	20	192	6
TAP	20	192	7
TAP	20	288	6
TAP	20	288	7
TAP	21	0	1
TAP	21	96	2
TAP	21	96	5
TAP	21	192	2
TAP	21	192	5
TAP	22	0	2
TAP	22	192	2
TAP	22	192	3
TAP	23	0	5
TAP	23	96	4
TAP	23	192	4
TAP	23	192	5
TAP	24	0	2
TAP	24	192	2
TAP	24	192	3
TAP	25	0	4
TAP	25	96	3
TAP	25	192	3
TAP	25	192	4
TAP	26	0	5
TAP	26	192	4
TAP	26	192	5
TAP	27	0	2
TAP	27	96	3
TAP	27	192	2
TAP	27	192	3
TAP	28	0	5
TAP	28	192	4
TAP	28	192	5
TAP	29	0	3
TAP	29	96	4
TAP	29	192	3
TAP	29	192	4
TAP	30	0	6
TAP	30	192	6
TAP	30	192	7
TAP	31	0	1
TAP	31	96	0
TAP	31	192	0
TAP	31	192	1
TAP	32	0	6
TAP	32	192	6
TAP	32	192	7
TAP	33	0	0
TAP	33	96	7
TAP	33	192	0
TAP	33	192	7
TAP	34	0	1
TAP	34	192	0
TAP	34	192	1
TAP	35	0	6
TAP	35	96	7
TAP	35	192	6
TAP	35	192	7
TAP	36	0	1
TAP	36	192	0
TAP	36	192	1
TAP	37	0	7
TAP	37	96	0
TAP	37	192	0
TAP	37	192	7
HLD	38	0	5	384
HLD	39	0	4	384
HLD	40	0	3	384
TAP	41	0	2
HLD	42	0	0	384
TAP	43	0	7
STR	44	0	0
SV_	44	0	0	96	288	3
STR	44	0	7
SV_	44	0	7	96	288	4
BRK	45	192	1
BRK	45	192	6
HLD	46	0	1	96
TAP	46	96	0
HLD	46	192	6	96
TAP	46	288	7
TAP	47	0	0
TAP	47	0	7
TAP	47	96	1
TAP	47	96	6
TAP	47	192	2
TAP	47	192	5
HLD	48	0	2	96
TAP	48	96	3
HLD	48	192	5	96
TAP	48	288	4
TAP	49	0	3
TAP	49	0	4
TAP	49	96	2
TAP	49	96	5
TAP	49	192	1
TAP	49	192	6
TAP	50	0	4
TAP	50	96	3
TAP	50	96	5
TAP	50	192	2
TAP	50	192	6
TAP	51	0	3
TAP	51	96	2
TAP	51	96	4
TAP	51	192	1
TAP	51	192	5
STR	52	0	0
SI_	52	0	0	96	192	4
TAP	53	0	3
TAP	53	0	4
TAP	53	96	3
TAP	53	96	4
TAP	53	192	2
TAP	53	192	5
HLD	54	0	5	96
TAP	54	96	4
HLD	54	192	2	96
TAP	54	288	3
TAP	55	0	3
TAP	55	0	4
TAP	55	96	2
TAP	55	96	5
TAP	55	192	1
TAP	55	192	6
HLD	56	0	6	96
TAP	56	96	7
HLD	56	192	1	96
TAP	56	288	0
TAP	57	0	0
TAP	57	0	7
TAP	57	96	1
TAP	57	96	6
TAP	57	192	2
TAP	57	192	5
TAP	58	0	0
TAP	58	96	1
TAP	58	96	7
TAP	58	192	2
TAP	58	192	6
TAP	59	0	7
TAP	59	96	0
TAP	59	96	6
TAP	59	192	1
TAP	59	192	5
HLD	60	0	2	96
HLD	60	0	3	96
HLD	60	192	4	96
HLD	60	192	5	96
TAP	61	0	0
TAP	61	0	7
TAP	61	96	0
TAP	61	96	7
BRK	61	192	1
BRK	61	192	6
HLD	62	0	5	192
TAP	62	192	4
TAP	63	0	2
TAP	63	96	3
TAP	63	192	4
HLD	64	0	2	192
TAP	64	192	3
TAP	65	0	5
TAP	65	96	4
TAP	65	192	3
HLD	66	0	3	96
HLD	66	0	4	96
TAP	66	192	2
TAP	66	192	5
TAP	67	0	4
TAP	67	96	3
TAP	67	192	2
TAP	67	192	5
TAP	68	0	1
TAP	68	96	0
TAP	68	192	7
STR	68	288	6
SSR	68	288	6	96	288	2
HLD	70	0	1	384
TAP	71	0	0
TAP	71	192	0
HLD	72	0	6	384
TAP	73	0	7
TAP	73	192	7
HLD	74	0	4	192
HLD	74	0	5	192
HLD	75	0	2	192
HLD	75	0	3	192
HLD	76	0	3	192
HLD	76	0	4	192
HLD	77	0	2	96
HLD	77	0	5	96
BRK	77	192	1
BRK	77	192	6
HLD	78	0	1	96
TAP	78	96	0
HLD	78	192	6	96
TAP	78	288	7
TAP	79	0	7
TAP	79	96	0
TAP	79	96	6
TAP	79	192	1
TAP	79	192	5
HLD	80	0	2	96
TAP	80	96	3
HLD	80	192	5	96
TAP	80	288	4
TAP	81	0	4
TAP	81	96	3
TAP	81	96	5
TAP	81	192	2
TAP	81	192	6
TAP	82	0	4
TAP	82	0	5
TAP	82	96	3
TAP	82	96	6
TAP	82	192	2
TAP	82	192	7
TAP	83	0	2
TAP	83	0	3
TAP	83	96	1
TAP	83	96	4
TAP	83	192	0
TAP	83	192	5
STR	84	0	0
SI_	84	0	0	96	192	4
TAP	85	0	3
TAP	85	0	4
TAP	85	96	3
TAP	85	96	4
TAP	85	192	2
TAP	85	192	5
HLD	86	0	5	96
TAP	86	96	4
HLD	86	192	2	96
TAP	86	288	3
TAP	87	0	3
TAP	87	96	2
TAP	87	96	4
TAP	87	192	1
TAP	87	192	5
HLD	88	0	6	96
TAP	88	96	7
HLD	88	192	1	96
TAP	88	288	0
TAP	89	0	0
TAP	89	96	1
TAP	89	96	7
TAP	89	192	2
TAP	89	192	6
TAP	90	0	0
TAP	90	0	1
TAP	90	96	2
TAP	90	96	7
TAP	90	192	3
TAP	90	192	6
TAP	91	0	6
TAP	91	0	7
TAP	91	96	0
TAP	91	96	5
TAP	91	192	1
TAP	91	192	4
HLD	92	0	2	96
HLD	92	0	3	96
HLD	92	192	4	96
HLD	92	192	5	96
TAP	93	0	3
TAP	93	0	4
TAP	93	96	2
TAP	93	96	5
TAP	93	192	1
TAP	93	192	6
TAP	93	288	0
TAP	93	288	7
TAP	94	0	0
TAP	94	48	0
TAP	94	144	7
TAP	94	192	7
TAP	94	288	0
TAP	94	288	7
TAP	94	336	0
TAP	94	336	7
BRK	95	0	0
BRK	95	0	7
TAP	96	0	2
TAP	96	96	2
TAP	96	192	3
TAP	97	0	5
TAP	97	96	5
TAP	97	192	4
TAP	98	0	3
TAP	98	96	3
TAP	98	192	4
TAP	99	0	4
TAP	99	96	3
TAP	99	192	3
TAP	99	192	4
TAP	100	0	1
TAP	100	96	1
TAP	100	192	0
TAP	101	0	6
TAP	101	96	6
TAP	101	192	7
TAP	102	0	0
TAP	102	96	0
TAP	102	192	7
TAP	103	0	7
TAP	103	96	0
BRK	103	192	1
BRK	103	192	6

T_REC_TAP	327
T_REC_BRK	10
T_REC_XTP	0
T_REC_HLD	42
T_REC_XHO	0
T_REC_STR	7
T_REC_BST	0
T_REC_XST	0
T_REC_TTP	0
T_REC_THO	0
T_REC_SLD	7
T_REC_ALL	393
T_NUM_TAP	334
T_NUM_BRK	10
T_NUM_HLD	42
T_NUM_SLD	7
T_NUM_ALL	393
T_JUDGE_TAP	344
T_JUDGE_HLD	136
T_JUDGE_SLD	7
T_JUDGE_ALL	487
TTM_EACHPAIRS	120
TTM_SCR_TAP	167000
TTM_SCR_BRK	26000
TTM_SCR_HLD	42000
TTM_SCR_SLD	10500
TTM_SCR_ALL	245500
TTM_SCR_S	237200
TTM_SCR_SS	244500
TTM_RAT_ACV	10040

