VERSION	0.00.00	1.03.00
FES_MODE	0
BPM_DEF	195.000	195.000	195.000	195.000
MET_DEF	4	4
RESOLUTION	384
CLK_DEF	384
COMPATIBLE_CODE	MA2

BPM	0	0	195.000
MET	0	0	4	4

TAP	6	0	0
TAP	6	192	0
TAP	7	0	0
TAP	8	0	7
TAP	8	192	7
TAP	9	0	7
TAP	10	0	6
TAP	10	192	6
TAP	11	0	6
TAP	12	0	5
TAP	12	192	5
TAP	13	0	5
TAP	14	0	4
TAP	14	0	5
TAP	14	192	4
TAP	14	192	5
TAP	15	0	4
TAP	15	0	5
TAP	16	0	2
TAP	16	0	3
TAP	16	192	2
TAP	16	192	3
HLD	17	0	2	192
HLD	17	0	3	192
TAP	18	0	2
TAP	18	192	2
TAP	19	0	3
TAP	19	192	3
TAP	20	0	4
TAP	20	192	4
BRK	21	0	5
TAP	22	0	4
TAP	22	192	4
TAP	23	0	3
TAP	23	192	3
TAP	24	0	2
TAP	24	192	2
TAP	25	0	1
TAP	25	96	1
TAP	25	192	1
TAP	26	0	0
TAP	26	192	0
TAP	27	0	7
TAP	27	192	7
STR	28	0	0
SI_	28	0	0	96	288	4
TAP	30	0	3
TAP	30	192	3
TAP	31	0	4
TAP	31	192	4
TAP	32	0	5
TAP	32	192	5
TAP	33	0	6
TAP	33	96	6
TAP	33	192	6
TAP	34	0	7
TAP	34	192	7
TAP	35	0	0
TAP	35	192	0
STR	36	0	7
SI_	36	0	7	96	288	3
STR	38	0	0
SI_	38	0	0	96	288	3
STR	40	0	7
SI_	40	0	7	96	288	4
STR	42	0	1
SI_	42	0	1	96	288	4
BRK	44	0	7
TAP	46	0	0
TAP	46	96	0
TAP	46	192	0
TAP	47	0	1
TAP	47	96	1
TAP	47	192	0
TAP	47	192	1
TAP	48	0	2
TAP	48	96	2
TAP	48	192	3
TAP	48	288	3
TAP	49	0	4
TAP	49	96	3
TAP	49	192	4
TAP	50	0	5
TAP	50	96	5
TAP	50	192	4
TAP	50	192	5
TAP	51	0	2
TAP	51	96	2
TAP	51	192	2
TAP	51	192	3
TAP	52	0	4
TAP	52	96	4
TAP	52	192	3
TAP	52	288	3
TAP	53	0	4
TAP	53	96	3
TAP	53	192	4
TAP	54	0	4
TAP	54	96	4
TAP	54	192	4
TAP	55	0	5
TAP	55	96	5
TAP	55	192	4
TAP	55	192	5
TAP	56	0	6
TAP	56	96	6
TAP	56	192	7
TAP	56	288	7
TAP	57	0	0
TAP	57	96	7
TAP	57	192	0
TAP	58	0	1
TAP	58	96	1
TAP	58	192	0
TAP	58	192	1
TAP	59	0	6
TAP	59	96	6
TAP	59	192	6
TAP	59	192	7
TAP	60	0	0
TAP	60	96	0
TAP	60	192	7
TAP	60	288	7
TAP	61	0	0
TAP	61	96	7
BRK	61	192	0
HLD	62	0	7	384
HLD	64	0	6	384
HLD	66	0	5	384
HLD	68	0	4	384
TAP	70	0	3
TAP	71	0	3
TAP	72	0	2
TAP	73	0	2
TAP	74	0	1
TAP	75	0	1
TAP	76	0	0
TAP	77	0	0
TAP	77	96	0
BRK	77	192	0
TAP	78	0	7
TAP	78	96	7
TAP	78	192	7
TAP	79	0	6
TAP	79	96	6
TAP	79	192	6
TAP	79	192	7
TAP	80	0	5
TAP	80	96	5
TAP	80	192	4
TAP	80	288	4
TAP	81	0	3
TAP	81	96	4
TAP	81	192	3
TAP	82	0	2
TAP	82	96	2
TAP	82	192	2
TAP	82	192	3
TAP	83	0	5
TAP	83	96	5
TAP	83	192	4
TAP	83	192	5
TAP	84	0	3
TAP	84	96	3
TAP	84	192	4
TAP	84	288	4
TAP	85	0	3
TAP	85	96	4
TAP	85	192	3
TAP	85	192	4
TAP	86	0	3
TAP	86	96	3
TAP	86	192	3
TAP	87	0	2
TAP	87	96	2
TAP	87	192	2
TAP	87	192	3
TAP	88	0	1
TAP	88	96	1
TAP	88	192	0
TAP	88	288	0
TAP	89	0	7
TAP	89	96	0
TAP	89	192	7
TAP	90	0	6
TAP	90	96	6
TAP	90	192	6
TAP	90	192	7
TAP	91	0	1
TAP	91	96	1
TAP	91	192	0
TAP	91	192	1
TAP	92	0	7
TAP	92	96	7
TAP	92	192	6
TAP	92	288	6
TAP	93	0	5
TAP	93	96	5
TAP	93	192	3
TAP	93	192	4
TAP	94	0	3
TAP	94	96	3
TAP	94	192	2
TAP	94	288	2
TAP	95	0	1
TAP	95	96	1
TAP	95	192	0
TAP	95	192	7
TAP	96	0	7
TAP	96	192	7
TAP	97	0	0
TAP	97	192	0
TAP	98	0	1
TAP	98	192	1
TAP	99	0	2
TAP	99	96	2
TAP	99	192	2
TAP	100	0	3
TAP	100	192	3
TAP	101	0	4
TAP	101	192	4
TAP	102	0	5
TAP	102	192	5
TAP	103	0	6
TAP	103	96	6
BRK	103	192	6

T_REC_TAP	205
T_REC_BRK	5
T_REC_XTP	0
T_REC_HLD	6
T_REC_XHO	0
T_REC_STR	5
T_REC_BST	0
T_REC_XST	0
T_REC_TTP	0
T_REC_THO	0
T_REC_SLD	5
T_REC_ALL	226
T_NUM_TAP	210
T_NUM_BRK	5
T_NUM_HLD	6
T_NUM_SLD	5
T_NUM_ALL	226
T_JUDGE_TAP	215
T_JUDGE_HLD	40
T_JUDGE_SLD	5
T_JUDGE_ALL	260
TTM_EACHPAIRS	21
TTM_SCR_TAP	105000
TTM_SCR_BRK	13000
TTM_SCR_HLD	6000
TTM_SCR_SLD	7500
TTM_SCR_ALL	131500
TTM_SCR_S	127100
TTM_SCR_SS	131000
TTM_RAT_ACV	10038

