VERSION	0.00.00	1.03.00
FES_MODE	0
BPM_DEF	150.000	150.000	150.000	150.000
MET_DEF	4	4
RESOLUTION	384
CLK_DEF	384
COMPATIBLE_CODE	MA2

BPM	0	0	150.000
MET	0	0	4	4

HLD	2	0	5	96
HLD	2	96	4	96
TAP	2	192	5
TAP	2	240	5
TAP	2	288	4
TAP	2	288	5
HLD	3	0	2	96
HLD	3	96	3	96
TAP	3	192	2
TAP	3	240	2
BRK	3	288	0
BRK	3	288	5
STR	4	0	6
SI_	4	0	6	96	48	4
TAP	4	0	7
TAP	4	96	3
TAP	4	192	3
TAP	4	240	2
TAP	4	288	1
TAP	4	288	3
TAP	4	336	0
STR	5	0	6
SI_	5	0	6	96	48	3
TAP	5	0	7
TAP	5	96	2
TAP	5	192	1
TAP	5	240	0
TAP	5	288	6
TAP	5	288	7
TAP	6	0	4
STR	6	0	5
SI_	6	0	5	96	48	0
TAP	6	96	1
TAP	6	192	2
TAP	6	240	3
TAP	6	288	4
TAP	6	288	5
TAP	6	336	6
TAP	7	0	0
TAP	7	0	7
TAP	7	48	0
TAP	7	48	7
TAP	7	96	1
TAP	7	96	6
TAP	7	144	2
TAP	7	144	5
TAP	7	192	3
TAP	7	216	4
TAP	7	240	3
TAP	7	264	4
TAP	7	288	3
STR	8	0	6
SI_	8	0	6	96	48	4
TAP	8	0	7
STR	8	96	3
SI_	8	96	3	96	48	7
TAP	8	192	6
TAP	8	288	0
TAP	8	336	1
TAP	9	0	2
STR	9	0	7
SI_	9	0	7	96	48	3
STR	9	96	2
SI_	9	96	2	96	48	0
TAP	9	192	6
TAP	9	240	6
TAP	9	288	5
TAP	9	288	7
TAP	10	0	0
HLD	10	0	6	96
TAP	10	96	7
TAP	10	144	6
TAP	10	192	0
HLD	10	192	5	96
TAP	10	288	4
TAP	10	336	5
TAP	11	0	3
STR	11	0	6
SCL	11	0	6	96	96	3
STR	11	96	3
SCL	11	96	3	96	96	0
STR	11	192	0
SCR	11	192	0	96	192	6
TAP	11	288	7
TAP	12	96	0
TAP	12	144	1
TAP	12	192	2
STR	12	192	7
SI_	12	192	7	96	48	3
HLD	12	288	2	144
TAP	13	48	3
TAP	13	96	4
TAP	13	144	3
TAP	13	144	5
TAP	13	192	4
TAP	13	240	3
TAP	13	288	2
TAP	13	288	4
TAP	13	336	3
BRK	14	0	4
BRK	14	0	5
BRK	14	48	3
BRK	14	48	6
BST	14	96	2
SI_	14	96	2	96	48	7
BRK	14	96	7
STR	14	192	6
SI_	14	192	6	96	48	3
TAP	14	288	2
TAP	15	0	1
TAP	15	48	1
TAP	15	96	2
TAP	15	96	3
TAP	15	144	1
TAP	15	192	6
TAP	15	240	6
TAP	15	288	4
TAP	15	288	5
TAP	15	336	6
BRK	16	0	0
HLD	16	0	7	192
BRK	16	96	1
BST	16	192	2
SCR	16	192	2	96	48	4
BRK	16	288	2
BRK	16	288	4
STR	17	0	5
SI_	17	0	5	96	48	7
STR	17	96	0
SI_	17	96	0	96	48	4
TAP	17	192	5
TAP	17	288	3
TAP	17	336	2
TAP	18	0	1
STR	18	0	4
SI_	18	0	4	96	48	0
STR	18	96	1
SI_	18	96	1	96	48	3
TAP	18	192	5
TAP	18	240	5
TAP	18	288	4
TAP	18	288	6
TAP	19	0	0
HLD	19	0	6	96
TAP	19	96	7
TAP	19	144	6
TAP	19	192	0
HLD	19	192	5	96
TAP	19	288	4
TAP	19	336	5
STR	20	0	3
SCL	20	0	3	96	96	0
TAP	20	0	6
STR	20	96	0
SCL	20	96	0	96	96	5
STR	20	192	5
SCR	20	192	5	96	192	3
BRK	20	288	4
TAP	21	96	4
TAP	21	144	5
STR	21	192	3
SI_	21	192	3	96	48	7
TAP	21	192	6
HLD	21	288	6	144
TAP	22	48	7
TAP	22	96	0
TAP	22	144	1
TAP	22	144	7
TAP	22	192	0
TAP	22	240	7
TAP	22	288	0
TAP	22	288	6
TAP	22	336	7
TAP	23	0	0
TAP	23	0	1
TAP	23	48	2
TAP	23	48	7
TAP	23	96	3
STR	23	96	6
SCL	23	96	6	96	48	3
STR	23	192	2
SCL	23	192	2	96	48	7
TAP	23	288	5
TAP	24	0	5
TAP	24	48	6
TAP	24	96	4
TAP	24	96	5
TAP	24	144	6
TAP	24	192	2
TAP	24	240	1
TAP	24	288	2
TAP	24	288	3
TAP	24	336	1
BRK	25	0	0
HLD	25	0	7	192
BRK	25	96	1
BRK	25	192	2
BRK	25	288	3
BST	25	288	6
SCL	25	288	6	96	144	2
TAP	26	0	2
STR	26	96	1
SCR	26	96	1	96	144	5
TAP	26	192	0
TAP	26	288	7
HLD	27	0	6	96
TAP	27	72	7
STR	27	96	7
SI_	27	96	7	96	48	3
TAP	27	144	0
TAP	27	192	1
STR	27	288	2
SCL	27	288	2	96	144	6
TAP	27	288	5
TAP	28	0	4
STR	28	96	5
SCR	28	96	5	96	144	1
TAP	28	192	4
TAP	28	288	3
HLD	29	0	2	96
TAP	29	72	3
STR	29	96	3
SI_	29	96	3	96	48	7
TAP	29	144	4
TAP	29	192	5
TAP	29	288	1
TAP	29	288	6
HLD	30	0	2	72
HLD	30	0	3	72
HLD	30	96	4	72
HLD	30	96	5	72
TAP	30	192	2
TAP	30	192	3
TAP	30	240	2
TAP	30	240	3
TAP	30	288	1
TAP	30	288	4
TAP	30	336	5
HLD	31	0	4	72
HLD	31	0	6	72
HLD	31	96	1	72
HLD	31	96	3	72
TAP	31	192	4
TAP	31	192	6
TAP	31	240	4
TAP	31	240	6
TAP	31	288	7
TAP	31	336	0
HLD	32	0	1	72
HLD	32	0	4	72
HLD	32	96	3	72
HLD	32	96	6	72
TAP	32	192	1
TAP	32	192	4
TAP	32	240	0
TAP	32	288	7
TAP	32	336	3
TAP	32	336	6
STR	33	0	2
SI_	33	0	2	96	48	6
TAP	33	0	5
STR	33	96	7
SCR	33	96	7	96	120	5
BRK	34	0	0
BRK	34	0	7
BRK	34	48	1
BRK	34	48	3
BRK	34	96	3
BRK	34	96	4
BRK	34	144	4
BRK	34	144	6
BRK	34	192	0
BRK	34	192	7
BRK	34	288	1
BRK	34	288	6
STR	35	0	3
SI_	35	0	3	96	48	0
TAP	35	0	4
STR	35	96	7
SCL	35	96	7	96	48	4
SCR	35	96	7	96	48	2
TAP	35	192	7
TAP	35	288	1
TAP	35	288	5
TAP	35	336	4
HLD	36	0	2	72
TAP	36	0	3
TAP	36	72	3
STR	36	96	2
SCL	36	96	2	96	96	5
TAP	36	144	3
TAP	36	192	4
STR	37	0	4
SI_	37	0	4	96	48	7
TAP	37	0	5
TAP	37	72	6
TAP	37	96	6
TAP	37	192	2
STR	37	192	3
SI_	37	192	3	96	48	0
TAP	37	264	1
TAP	37	288	1
STR	38	0	7
SI_	38	0	7	96	48	2
STR	38	96	0
SUL	38	96	0	96	48	3
STR	38	96	7
SCL	38	96	7	96	48	4
STR	39	0	1
SI_	39	0	1	96	48	3
STR	39	0	3
SI_	39	0	3	96	48	7
STR	39	192	4
SI_	39	192	4	96	48	0
STR	39	192	6
SI_	39	192	6	96	48	4
TAP	40	0	1
HLD	40	0	3	72
TAP	40	72	2
TAP	40	96	3
TAP	40	144	3
TAP	40	144	4
TAP	40	192	2
TAP	40	192	5
STR	40	288	6
SI_	40	288	6	96	48	4
TAP	40	336	7
TAP	41	0	6
STR	41	96	1
SI_	41	96	1	96	48	3
TAP	41	144	0
TAP	41	192	1
STR	41	288	5
SUL	41	288	5	96	192	3
TAP	42	0	4
TAP	42	288	1
TAP	42	288	6
BRK	43	0	3
BST	43	0	4
SI_	43	0	4	96	48	7
STR	43	96	0
SCL	43	96	0	96	48	5
SCR	43	96	0	96	48	3
TAP	43	192	0
TAP	43	288	2
TAP	43	288	6
TAP	43	336	3
TAP	44	0	4
HLD	44	0	5	72
TAP	44	72	4
STR	44	96	5
SCR	44	96	5	96	96	2
TAP	44	144	4
TAP	44	192	3
HLD	45	0	4	72
HLD	45	0	5	72
TAP	45	96	4
TAP	45	96	5
TAP	45	144	3
TAP	45	192	2
TAP	45	192	4
TAP	45	240	1
TAP	45	288	3
TAP	45	288	5
TAP	45	336	6
STR	46	0	0
SI_	46	0	0	96	48	5
STR	46	0	7
SI_	46	0	7	96	48	5
STR	46	96	0
SCR	46	96	0	96	48	4
STR	46	96	7
SUR	46	96	7	96	48	4
STR	47	0	4
SI_	47	0	4	96	48	0
STR	47	0	6
SCL	47	0	6	96	48	4
STR	47	192	1
SCR	47	192	1	96	48	3
STR	47	192	3
SI_	47	192	3	96	48	7
TAP	48	0	4
HLD	48	0	6	72
TAP	48	72	7
TAP	48	96	6
TAP	48	144	0
TAP	48	144	7
TAP	48	192	1
TAP	48	192	6
STR	48	288	1
SCR	48	288	1	96	48	3
TAP	48	336	0
TAP	49	0	1
STR	49	96	6
SCL	49	96	6	96	48	4
TAP	49	144	7
TAP	49	192	6
STR	49	288	2
SUR	49	288	2	96	192	4
TAP	50	0	3
TAP	50	288	0
TAP	50	336	7
STR	51	0	1
SI_	51	0	1	96	48	3
SI_	51	0	1	96	48	5
TAP	51	0	6
STR	51	192	6
SI_	51	192	6	96	48	2
SI_	51	192	6	96	48	4
TAP	52	0	0
TAP	52	24	7
TAP	52	48	0
TAP	52	72	7
TAP	52	96	1
TAP	52	120	6
TAP	52	144	1
TAP	52	168	6
TAP	52	192	2
TAP	52	216	5
TAP	52	240	2
BRK	52	288	0
BRK	52	288	7
TAP	53	0	2
TAP	53	24	3
TAP	53	48	2
TAP	53	72	3
BRK	53	96	0
TAP	53	192	2
TAP	53	192	4
TAP	53	240	3
TAP	53	288	2
TAP	53	288	4
TAP	53	336	3
TAP	54	0	5
TAP	54	24	4
TAP	54	48	5
TAP	54	72	4
BRK	54	96	7
TAP	54	192	3
TAP	54	192	5
TAP	54	240	4
TAP	54	288	3
TAP	54	288	5
STR	55	0	0
SI_	55	0	0	96	48	3
STR	55	0	7
SI_	55	0	7	96	48	4
TAP	55	96	0
TAP	55	96	7
TAP	55	192	2
TAP	55	192	5
TAP	55	240	3
TAP	55	288	2
TAP	55	288	5
TAP	55	336	4
TAP	56	0	1
TAP	56	0	3
TAP	56	48	1
TAP	56	48	3
TAP	56	96	4
TAP	56	96	6
TAP	56	144	4
TAP	56	144	6
TAP	56	192	3
TAP	56	216	4
TAP	56	240	3
BRK	56	288	1
BRK	56	288	6
TAP	57	0	2
STR	57	0	3
SI_	57	0	3	96	48	7
STR	57	96	0
SCL	57	96	0	96	48	5
SCR	57	96	0	96	48	3
TAP	57	192	0
TAP	57	288	2
TAP	57	288	6
TAP	57	336	3
HLD	58	0	4	72
TAP	58	0	5
TAP	58	72	5
STR	58	96	4
SCR	58	96	4	96	96	1
TAP	58	144	3
TAP	58	192	2
TAP	59	0	2
STR	59	0	3
SCR	59	0	3	96	48	6
TAP	59	72	0
TAP	59	96	0
STR	59	192	4
SCL	59	192	4	96	48	1
TAP	59	192	5
TAP	59	264	7
TAP	59	288	7
TAP	60	0	0
STR	60	0	7
SI_	60	0	7	96	48	1
SI_	60	0	7	96	48	2
STR	60	96	7
SCL	60	96	7	96	48	3
SUL	60	96	7	96	48	3
STR	61	0	1
SI_	61	0	1	96	48	3
STR	61	0	4
SI_	61	0	4	96	48	0
STR	61	192	4
SI_	61	192	4	96	48	0
STR	61	192	7
SI_	61	192	7	96	48	5
HLD	62	0	1	72
TAP	62	0	4
TAP	62	72	0
TAP	62	96	1
TAP	62	144	2
TAP	62	144	7
TAP	62	192	3
TAP	62	192	6
STR	62	288	2
SI_	62	288	2	96	48	7
TAP	62	336	3
TAP	63	0	2
STR	63	96	5
SI_	63	96	5	96	48	0
TAP	63	144	4
TAP	63	192	5
STR	63	288	1
SCR	63	288	1	96	192	7
TAP	64	0	0
STR	64	288	1
SCL	64	288	1	96	48	6
TAP	64	288	6
BRK	65	0	1
BST	65	0	6
SCR	65	0	6	96	48	1
TAP	65	192	2
TAP	65	192	3
TAP	65	240	1
TAP	65	288	2
TAP	65	288	3
TAP	65	336	4
TAP	66	0	2
HLD	66	0	3	72
TAP	66	72	2
STR	66	96	3
SCL	66	96	3	96	96	6
TAP	66	144	4
TAP	66	192	5
HLD	67	0	4	72
HLD	67	0	5	72
TAP	67	96	4
TAP	67	96	5
TAP	67	144	3
TAP	67	144	6
TAP	67	192	2
TAP	67	192	4
TAP	67	240	0
TAP	67	288	3
TAP	67	288	5
TAP	67	336	7
STR	68	0	0
SI_	68	0	0	96	48	3
STR	68	0	1
SI_	68	0	1	96	48	3
STR	68	96	0
SCL	68	96	0	96	48	4
STR	68	96	1
SUL	68	96	1	96	48	4
STR	69	0	1
SCR	69	0	1	96	48	3
STR	69	0	4
SUL	69	0	4	96	48	0
STR	69	192	4
SUR	69	192	4	96	48	0
STR	69	192	7
SCL	69	192	7	96	48	5
HLD	70	0	1	72
HLD	70	0	4	72
TAP	70	96	1
TAP	70	96	4
TAP	70	144	0
TAP	70	144	7
TAP	70	192	3
TAP	70	192	6
STR	70	288	5
SCR	70	288	5	96	48	0
TAP	70	336	4
TAP	71	0	5
STR	71	96	2
SCL	71	96	2	96	48	7
TAP	71	144	3
TAP	71	192	2
STR	71	288	6
SCL	71	288	6	96	192	0
TAP	72	0	7
TAP	72	288	0
TAP	72	288	7
TAP	72	336	1
TAP	72	336	6
STR	73	0	2
SI_	73	0	2	96	48	0
SI_	73	0	2	96	48	6
TAP	73	0	5
STR	73	192	5
SI_	73	192	5	96	48	1
SI_	73	192	5	96	48	7
TAP	74	0	3
TAP	74	24	4
TAP	74	48	3
TAP	74	72	4
TAP	74	96	3
TAP	74	120	4
TAP	74	144	3
TAP	74	168	4
TAP	74	192	2
TAP	74	216	5
TAP	74	240	2
TAP	74	264	5
TAP	74	288	1
TAP	74	312	6
TAP	74	336	1
TAP	74	360	6
TAP	75	0	0
TAP	75	24	7
TAP	75	48	0
TAP	75	72	7
TAP	75	96	0
TAP	75	120	7
TAP	75	144	0
TAP	75	168	7
TAP	75	192	1
TAP	75	216	7
TAP	75	240	1
TAP	75	264	7
BRK	75	288	2
BRK	75	288	6
STR	76	0	2
SCL	76	0	2	96	48	0
TAP	76	0	3
TAP	76	96	7
TAP	76	192	6
TAP	76	240	7
TAP	76	288	0
TAP	76	288	5
TAP	76	336	1
STR	77	0	2
SCL	77	0	2	96	48	7
TAP	77	0	3
TAP	77	96	6
TAP	77	192	5
TAP	77	240	4
TAP	77	288	3
TAP	77	288	6
TAP	78	0	4
STR	78	0	5
SCR	78	0	5	96	48	0
TAP	78	96	1
TAP	78	192	2
TAP	78	240	3
TAP	78	288	4
TAP	78	288	6
TAP	78	336	7
TAP	79	0	3
TAP	79	0	6
TAP	79	48	5
TAP	79	96	1
TAP	79	96	4
TAP	79	144	2
TAP	79	192	3
TAP	79	216	4
TAP	79	240	2
TAP	79	264	5
BST	79	288	1
SI_	79	288	1	96	48	5

T_REC_TAP	390
T_REC_BRK	38
T_REC_XTP	0
T_REC_HLD	39
T_REC_XHO	0
T_REC_STR	93
T_REC_BST	6
T_REC_XST	0
T_REC_TTP	0
T_REC_THO	0
T_REC_SLD	108
T_REC_ALL	674
T_NUM_TAP	483
T_NUM_BRK	44
T_NUM_HLD	39
T_NUM_SLD	108
T_NUM_ALL	674
T_JUDGE_TAP	527
T_JUDGE_HLD	84
T_JUDGE_SLD	108
T_JUDGE_ALL	719
TTM_EACHPAIRS	147
TTM_SCR_TAP	241500
TTM_SCR_BRK	114400
TTM_SCR_HLD	39000
TTM_SCR_SLD	162000
TTM_SCR_ALL	556900
TTM_SCR_S	535950
TTM_SCR_SS	552500
TTM_RAT_ACV	10079

