VERSION	0.00.00	1.03.00
FES_MODE	0
BPM_DEF	150.000	150.000	150.000	150.000
MET_DEF	4	4
RESOLUTION	384
CLK_DEF	384
COMPATIBLE_CODE	MA2

BPM	0	0	150.000
MET	0	0	4	4

BRK	3	288	2
BRK	3	288	5
TAP	4	0	3
TAP	4	0	4
TAP	4	96	1
TAP	4	96	3
TAP	4	192	1
TAP	4	240	0
TAP	4	288	1
TAP	5	0	3
TAP	5	0	4
TAP	5	96	4
TAP	5	96	6
TAP	5	192	6
TAP	5	240	7
TAP	5	288	6
TAP	6	0	3
TAP	6	0	4
TAP	6	96	1
TAP	6	96	3
TAP	6	192	0
TAP	6	240	7
TAP	6	288	0
TAP	7	0	2
TAP	7	0	5
TAP	7	48	2
TAP	7	48	5
TAP	7	96	2
STR	7	96	5
SCL	7	96	5	96	96	2
HLD	8	0	2	96
TAP	8	96	3
HLD	8	192	5	96
TAP	8	288	4
HLD	9	0	2	96
TAP	9	96	3
TAP	9	192	4
TAP	9	240	4
TAP	9	288	3
TAP	9	288	5
HLD	10	0	5	96
TAP	10	96	4
HLD	10	192	2	96
TAP	10	288	3
HLD	11	0	5	96
TAP	11	96	4
STR	11	192	3
SI_	11	192	3	96	48	1
HLD	12	0	6	96
TAP	12	96	5
HLD	12	192	1	96
TAP	12	288	2
HLD	13	0	6	96
TAP	13	96	5
TAP	13	192	2
TAP	13	240	2
TAP	13	288	1
TAP	13	288	3
HLD	14	0	1	96
TAP	14	96	2
HLD	14	192	6	96
TAP	14	288	5
HLD	15	0	1	96
TAP	15	96	2
STR	15	192	6
SI_	15	192	6	96	48	4
TAP	16	0	2
TAP	16	0	3
TAP	16	96	3
TAP	16	96	4
TAP	16	192	4
TAP	16	192	5
BRK	16	288	1
BRK	16	288	6
TAP	17	0	4
HLD	17	0	5	96
HLD	17	96	6	96
TAP	17	192	7
TAP	17	288	0
TAP	17	288	5
HLD	18	0	2	96
TAP	18	0	3
HLD	18	96	1	96
TAP	18	192	0
TAP	18	288	2
TAP	18	288	7
TAP	19	0	3
HLD	19	0	4	96
HLD	19	96	5	96
TAP	19	192	6
TAP	19	288	1
TAP	19	288	6
TAP	20	0	3
STR	20	0	4
SI_	20	0	4	96	48	6
TAP	20	192	0
TAP	20	192	7
BRK	20	288	4
BRK	20	288	5
HLD	21	0	2	96
TAP	21	0	3
HLD	21	96	1	96
TAP	21	192	0
TAP	21	288	2
TAP	21	288	7
TAP	22	0	4
HLD	22	0	5	96
HLD	22	96	6	96
TAP	22	192	7
TAP	22	288	0
TAP	22	288	5
HLD	23	0	3	96
TAP	23	0	4
HLD	23	96	2	96
TAP	23	192	1
TAP	23	288	1
TAP	23	288	6
STR	24	0	3
SI_	24	0	3	96	48	1
TAP	24	0	4
STR	24	192	0
SI_	24	192	0	96	48	3
TAP	24	192	7
TAP	25	0	1
TAP	25	0	6
TAP	25	96	1
TAP	25	96	6
TAP	25	192	1
TAP	25	192	6
BRK	25	288	3
BRK	25	288	4
STR	26	0	2
SCL	26	0	2	96	192	6
TAP	26	0	3
TAP	27	0	4
TAP	27	0	5
TAP	27	96	4
TAP	27	96	6
TAP	27	192	3
TAP	27	192	4
TAP	27	288	4
TAP	27	288	6
TAP	28	0	4
STR	28	0	5
SCR	28	0	5	96	192	1
TAP	29	0	2
TAP	29	0	3
TAP	29	96	1
TAP	29	96	3
TAP	29	192	3
TAP	29	192	4
TAP	29	288	1
TAP	29	288	3
STR	30	0	2
SCR	30	0	2	96	96	5
TAP	30	0	6
TAP	30	288	0
TAP	30	288	7
TAP	31	0	2
STR	31	0	6
SCR	31	0	6	96	96	1
TAP	31	288	3
TAP	31	288	4
STR	32	0	3
SCL	32	0	3	96	96	0
STR	32	0	4
SCR	32	0	4	96	96	7
TAP	32	288	2
TAP	32	288	5
HLD	33	0	1	96
HLD	33	0	3	96
HLD	33	192	4	96
HLD	33	192	6	96
BRK	34	0	3
BRK	34	0	4
BRK	34	48	3
BRK	34	48	4
BRK	34	96	3
BRK	34	96	4
BRK	34	144	3
BRK	34	144	4
BRK	34	192	3
BRK	34	192	4
BRK	34	288	0
BRK	34	288	7
STR	35	0	0
SI_	35	0	0	96	48	3
TAP	35	0	1
TAP	35	192	6
STR	35	192	7
SI_	35	192	7	96	48	4
STR	36	0	0
SCL	36	0	0	96	96	4
TAP	36	0	1
TAP	36	288	3
TAP	36	288	7
TAP	37	0	4
TAP	37	0	5
TAP	37	96	6
TAP	37	96	7
TAP	37	192	4
TAP	37	192	5
TAP	37	288	0
TAP	37	288	1
STR	38	0	4
SI_	38	0	4	96	48	1
TAP	38	0	5
TAP	38	192	2
TAP	38	192	7
TAP	39	0	6
STR	39	0	7
SI_	39	0	7	96	48	4
STR	39	192	0
SI_	39	192	0	96	48	3
TAP	39	192	1
TAP	40	0	6
STR	40	0	7
SCR	40	0	7	96	96	3
TAP	40	288	0
TAP	40	288	4
HLD	41	0	0	96
HLD	41	0	5	96
HLD	41	192	2	96
HLD	41	192	7	96
TAP	42	0	2
STR	42	0	5
SCR	42	0	5	96	96	2
TAP	42	288	1
TAP	42	288	6
BRK	43	0	6
BST	43	0	7
SI_	43	0	7	96	48	4
STR	43	192	0
SI_	43	192	0	96	48	3
TAP	43	192	1
TAP	44	0	6
STR	44	0	7
SCR	44	0	7	96	96	3
TAP	44	288	0
TAP	44	288	4
TAP	45	0	2
TAP	45	0	3
TAP	45	96	0
TAP	45	96	1
TAP	45	192	2
TAP	45	192	3
TAP	45	288	6
TAP	45	288	7
TAP	46	0	2
STR	46	0	3
SI_	46	0	3	96	48	6
TAP	46	192	0
TAP	46	192	5
STR	47	0	0
SI_	47	0	0	96	48	3
TAP	47	0	1
TAP	47	192	6
STR	47	192	7
SI_	47	192	7	96	48	4
STR	48	0	0
SCL	48	0	0	96	96	4
TAP	48	0	1
TAP	48	288	3
TAP	48	288	7
HLD	49	0	2	96
HLD	49	0	7	96
HLD	49	192	0	96
HLD	49	192	5	96
STR	50	0	2
SCL	50	0	2	96	96	5
TAP	50	0	5
TAP	50	288	1
TAP	50	288	6
TAP	51	0	2
STR	51	0	5
SXR	51	0	5	96	192	2
TAP	52	0	3
TAP	52	0	4
TAP	52	48	3
TAP	52	48	4
TAP	52	96	3
TAP	52	96	4
TAP	52	144	3
TAP	52	144	4
TAP	52	192	2
TAP	52	192	5
TAP	52	240	2
TAP	52	240	5
BRK	52	288	2
BRK	52	288	5
TAP	53	0	3
TAP	53	0	4
TAP	53	96	4
TAP	53	96	6
TAP	53	192	7
TAP	53	240	6
TAP	53	288	0
TAP	53	288	5
TAP	54	0	3
TAP	54	0	4
TAP	54	96	1
TAP	54	96	3
TAP	54	192	0
TAP	54	240	1
TAP	54	288	2
TAP	54	288	7
TAP	55	0	3
TAP	55	0	4
TAP	55	96	4
TAP	55	96	6
TAP	55	192	7
TAP	55	240	0
TAP	55	288	1
TAP	55	288	6
TAP	56	0	2
TAP	56	0	5
TAP	56	48	2
TAP	56	48	5
STR	56	96	2
SCR	56	96	2	96	96	5
TAP	56	96	5
TAP	57	0	6
STR	57	0	7
SI_	57	0	7	96	48	3
STR	57	192	0
SI_	57	192	0	96	48	4
TAP	57	192	1
TAP	58	0	6
STR	58	0	7
SCR	58	0	7	96	96	4
TAP	58	288	1
TAP	58	288	5
TAP	59	0	2
TAP	59	0	3
TAP	59	96	0
TAP	59	96	7
TAP	59	192	4
TAP	59	192	5
TAP	59	288	0
TAP	59	288	7
STR	60	0	2
SI_	60	0	2	96	48	7
STR	60	0	3
SI_	60	0	3	96	48	6
TAP	60	192	0
TAP	60	192	5
STR	61	0	0
SI_	61	0	0	96	48	4
TAP	61	0	1
TAP	61	192	6
STR	61	192	7
SI_	61	192	7	96	48	3
STR	62	0	0
SCL	62	0	0	96	96	3
TAP	62	0	1
TAP	62	288	2
TAP	62	288	6
HLD	63	0	0	96
HLD	63	0	3	96
HLD	63	192	4	96
HLD	63	192	7	96
STR	64	0	2
SCL	64	0	2	96	96	5
TAP	64	0	5
TAP	64	288	1
TAP	64	288	6
BST	65	0	0
SI_	65	0	0	96	48	4
BRK	65	0	1
TAP	65	192	6
STR	65	192	7
SI_	65	192	7	96	48	3
STR	66	0	0
SCL	66	0	0	96	96	3
TAP	66	0	1
TAP	66	288	2
TAP	66	288	6
TAP	67	0	4
TAP	67	0	5
TAP	67	96	0
TAP	67	96	7
TAP	67	192	2
TAP	67	192	3
TAP	67	288	0
TAP	67	288	7
STR	68	0	4
SI_	68	0	4	96	48	1
STR	68	0	5
SI_	68	0	5	96	48	0
TAP	68	192	2
TAP	68	192	7
TAP	69	0	6
STR	69	0	7
SI_	69	0	7	96	48	3
STR	69	192	0
SI_	69	192	0	96	48	4
TAP	69	192	1
TAP	70	0	6
STR	70	0	7
SCR	70	0	7	96	96	4
TAP	70	288	1
TAP	70	288	5
HLD	71	0	4	96
HLD	71	0	7	96
HLD	71	192	0	96
HLD	71	192	3	96
TAP	72	0	2
STR	72	0	5
SCR	72	0	5	96	96	2
TAP	72	288	1
TAP	72	288	6
STR	73	0	2
SXL	73	0	2	96	192	5
TAP	73	0	5
TAP	74	0	3
TAP	74	0	4
TAP	74	48	3
TAP	74	48	4
TAP	74	96	3
TAP	74	96	4
TAP	74	144	3
TAP	74	144	4
TAP	74	192	2
TAP	74	192	5
TAP	74	240	2
TAP	74	240	5
TAP	74	288	2
TAP	74	288	5
TAP	75	0	1
TAP	75	0	6
TAP	75	48	1
TAP	75	48	6
TAP	75	96	1
TAP	75	96	6
TAP	75	144	1
TAP	75	144	6
TAP	75	192	0
TAP	75	192	7
TAP	75	240	0
TAP	75	240	7
BRK	75	288	0
BRK	75	288	7
TAP	76	0	3
TAP	76	48	2
TAP	76	96	1
TAP	76	96	4
TAP	76	192	0
TAP	76	240	1
TAP	76	288	2
TAP	76	288	7
TAP	77	0	4
TAP	77	48	5
TAP	77	96	3
TAP	77	96	6
TAP	77	192	7
TAP	77	240	6
TAP	77	288	0
TAP	77	288	5
TAP	78	0	4
TAP	78	48	3
TAP	78	96	2
TAP	78	96	5
TAP	78	192	0
TAP	78	240	7
TAP	78	288	1
TAP	78	288	6
TAP	79	0	2
TAP	79	0	5
TAP	79	48	2
TAP	79	48	5
STR	79	96	2
SCR	79	96	2	96	96	5
TAP	79	96	5
TAP	80	0	3
TAP	80	0	4

T_REC_TAP	305
T_REC_BRK	26
T_REC_XTP	0
T_REC_HLD	44
T_REC_XHO	0
T_REC_STR	48
T_REC_BST	2
T_REC_XST	0
T_REC_TTP	0
T_REC_THO	0
T_REC_SLD	50
T_REC_ALL	475
T_NUM_TAP	353
T_NUM_BRK	28
T_NUM_HLD	44
T_NUM_SLD	50
T_NUM_ALL	475
T_JUDGE_TAP	381
T_JUDGE_HLD	88
T_JUDGE_SLD	50
T_JUDGE_ALL	519
TTM_EACHPAIRS	178
TTM_SCR_TAP	176500
TTM_SCR_BRK	72800
TTM_SCR_HLD	44000
TTM_SCR_SLD	75000
TTM_SCR_ALL	368300
TTM_SCR_S	354550
TTM_SCR_SS	365500
TTM_RAT_ACV	10076

