VERSION	0.00.00	1.03.00
FES_MODE	0
BPM_DEF	150.000	150.000	150.000	150.000
MET_DEF	4	4
RESOLUTION	384
CLK_DEF	384
COMPATIBLE_CODE	MA2

BPM	0	0	150.000
MET	0	0	4	4

TAP	4	0	5
TAP	4	96	4
TAP	4	192	4
TAP	4	192	6
TAP	5	0	2
TAP	5	96	3
TAP	5	192	1
TAP	5	192	3
TAP	6	0	5
TAP	6	96	5
TAP	6	192	4
TAP	6	288	4
HLD	7	0	3	96
HLD	7	0	4	96
TAP	7	192	2
TAP	7	192	5
TAP	8	0	5
TAP	8	96	5
TAP	8	192	4
TAP	8	192	6
TAP	9	0	2
TAP	9	96	2
TAP	9	192	1
TAP	9	192	3
HLD	10	0	6	192
TAP	10	192	7
HLD	11	0	1	192
TAP	11	192	0
TAP	12	0	1
TAP	12	96	1
TAP	12	192	0
TAP	12	192	2
TAP	13	0	6
TAP	13	96	6
TAP	13	192	5
TAP	13	192	7
TAP	14	0	5
TAP	14	96	4
TAP	14	192	2
TAP	14	288	3
HLD	15	0	2	192
HLD	15	0	5	192
TAP	16	0	4
TAP	16	0	5
TAP	16	96	4
TAP	16	96	5
TAP	16	192	2
TAP	16	192	3
TAP	17	0	2
TAP	17	96	2
TAP	17	192	1
TAP	17	192	3
TAP	18	0	5
TAP	18	96	5
TAP	18	192	4
TAP	18	192	6
HLD	19	0	1	192
TAP	19	192	0
HLD	20	0	6	192
TAP	20	192	7
TAP	21	0	6
TAP	21	96	6
TAP	21	192	5
TAP	21	192	7
TAP	22	0	1
TAP	22	96	1
TAP	22	192	0
TAP	22	192	2
TAP	23	0	3
TAP	23	96	4
TAP	23	192	5
TAP	23	288	6
TAP	24	0	7
TAP	24	96	0
TAP	24	192	1
TAP	24	288	2
TAP	25	0	0
TAP	25	0	1
TAP	25	96	0
TAP	25	96	1
TAP	25	192	6
TAP	25	192	7
HLD	26	0	5	192
TAP	26	192	4
TAP	27	0	1
TAP	27	0	3
TAP	27	96	1
TAP	27	96	3
TAP	27	192	1
TAP	27	192	3
HLD	28	0	2	192
TAP	28	192	3
TAP	29	0	4
TAP	29	0	6
TAP	29	96	4
TAP	29	96	6
TAP	29	192	4
TAP	29	192	6
HLD	30	0	5	192
HLD	30	192	4	192
HLD	31	0	3	192
HLD	31	192	2	192
TAP	32	0	1
TAP	32	96	0
TAP	32	192	7
STR	32	288	7
SSL	32	288	7	96	288	3
TAP	34	0	1
TAP	34	96	6
BRK	34	192	0
BRK	34	192	7
HLD	35	0	0	96
HLD	35	0	1	96
HLD	35	192	6	96
HLD	35	192	7	96
TAP	36	0	0
TAP	36	0	1
TAP	36	96	6
TAP	36	96	7
TAP	36	192	0
TAP	36	192	1
TAP	37	0	6
TAP	37	96	5
TAP	37	96	7
TAP	37	192	1
TAP	37	288	0
TAP	37	288	2
TAP	38	0	1
TAP	38	0	6
TAP	38	96	1
TAP	38	96	6
TAP	38	192	0
TAP	38	192	7
HLD	39	0	4	96
HLD	39	0	5	96
HLD	39	192	2	96
HLD	39	192	3	96
TAP	40	0	4
TAP	40	0	5
TAP	40	96	2
TAP	40	96	3
TAP	40	192	4
TAP	40	192	5
STR	41	0	5
SUL	41	0	5	96	240	2
TAP	42	0	1
TAP	42	96	6
BRK	42	192	0
BRK	42	192	7
HLD	43	0	6	96
HLD	43	0	7	96
HLD	43	192	0	96
HLD	43	192	1	96
TAP	44	0	6
TAP	44	0	7
TAP	44	96	0
TAP	44	96	1
TAP	44	192	6
TAP	44	192	7
TAP	45	0	5
TAP	45	96	4
TAP	45	96	6
TAP	45	192	2
TAP	45	288	1
TAP	45	288	3
TAP	46	0	2
TAP	46	0	5
TAP	46	96	2
TAP	46	96	5
TAP	46	192	3
TAP	46	192	4
HLD	47	0	2	96
HLD	47	0	3	96
HLD	47	192	4	96
HLD	47	192	5	96
TAP	48	0	2
TAP	48	0	3
TAP	48	96	4
TAP	48	96	5
TAP	48	192	2
TAP	48	192	3
STR	49	0	3
SI_	49	0	3	96	96	0
STR	49	192	4
SI_	49	192	4	96	96	7
TAP	50	0	1
TAP	50	96	6
BRK	50	192	0
BRK	50	192	7
STR	51	0	0
SI_	51	0	0	96	96	3
STR	51	192	7
SI_	51	192	7	96	96	4
TAP	52	0	3
TAP	52	96	2
BRK	52	192	1
BRK	52	192	6
TAP	53	0	5
TAP	53	96	4
TAP	53	96	6
TAP	53	192	3
TAP	53	192	7
TAP	54	0	2
TAP	54	96	1
TAP	54	96	3
TAP	54	192	0
TAP	54	192	4
TAP	55	0	6
TAP	55	96	5
TAP	55	192	4
TAP	55	288	3
HLD	56	0	3	96
HLD	56	0	4	96
TAP	56	192	2
TAP	56	192	5
BRK	57	0	2
BRK	57	0	3
TAP	57	96	1
TAP	57	96	4
TAP	57	192	4
TAP	57	192	5
TAP	57	288	3
TAP	57	288	6
TAP	58	0	1
TAP	58	0	4
TAP	58	96	3
TAP	58	96	6
TAP	58	192	1
TAP	58	192	4
TAP	59	0	5
TAP	59	96	0
TAP	59	96	7
TAP	59	192	2
TAP	59	288	0
TAP	59	288	7
TAP	60	0	1
TAP	60	0	6
TAP	60	96	1
TAP	60	96	6
TAP	60	192	0
TAP	60	192	7
TAP	61	0	6
TAP	61	0	7
TAP	61	96	0
TAP	61	96	5
TAP	61	192	0
TAP	61	192	1
TAP	61	288	2
TAP	61	288	7
TAP	62	0	0
TAP	62	0	5
TAP	62	96	2
TAP	62	96	7
TAP	62	192	0
TAP	62	192	5
STR	63	0	1
SUL	63	0	1	96	240	6
TAP	64	0	4
TAP	64	96	3
TAP	64	192	2
TAP	64	192	5
BRK	65	0	4
BRK	65	0	5
TAP	65	96	3
TAP	65	96	6
TAP	65	192	2
TAP	65	192	3
TAP	65	288	1
TAP	65	288	4
TAP	66	0	2
TAP	66	0	7
TAP	66	96	0
TAP	66	96	5
TAP	66	192	2
TAP	66	192	7
TAP	67	0	5
TAP	67	96	0
TAP	67	96	7
TAP	67	192	2
TAP	67	288	1
TAP	67	288	6
TAP	68	0	7
TAP	68	48	7
TAP	68	96	0
TAP	68	192	1
TAP	68	192	6
TAP	69	0	0
TAP	69	0	1
TAP	69	96	2
TAP	69	96	7
TAP	69	192	6
TAP	69	192	7
TAP	69	288	0
TAP	69	288	5
TAP	70	0	3
TAP	70	0	6
TAP	70	96	1
TAP	70	96	4
TAP	70	192	3
TAP	70	192	6
STR	71	0	4
SI_	71	0	4	96	96	7
STR	71	192	3
SI_	71	192	3	96	96	0
STR	72	0	7
SCL	72	0	7	96	240	4
HLD	73	0	1	96
HLD	73	0	3	96
HLD	73	192	4	96
HLD	73	192	6	96
HLD	74	0	1	288
HLD	74	0	6	288
HLD	75	0	0	192
HLD	75	0	7	192
BRK	75	288	2
TAP	76	0	5
TAP	76	96	4
TAP	76	192	4
TAP	76	192	5
TAP	77	0	2
TAP	77	96	3
TAP	77	192	2
TAP	77	192	3
TAP	78	0	5
TAP	78	96	5
TAP	78	192	2
TAP	78	288	2
HLD	79	0	1	96
HLD	79	0	6	96
TAP	79	192	2
TAP	79	192	5
TAP	79	288	2
TAP	79	288	5
BRK	80	0	3
BRK	80	0	4

T_REC_TAP	258
T_REC_BRK	15
T_REC_XTP	0
T_REC_HLD	42
T_REC_XHO	0
T_REC_STR	10
T_REC_BST	0
T_REC_XST	0
T_REC_TTP	0
T_REC_THO	0
T_REC_SLD	10
T_REC_ALL	335
T_NUM_TAP	268
T_NUM_BRK	15
T_NUM_HLD	42
T_NUM_SLD	10
T_NUM_ALL	335
T_JUDGE_TAP	283
T_JUDGE_HLD	120
T_JUDGE_SLD	10
T_JUDGE_ALL	413
TTM_EACHPAIRS	112
TTM_SCR_TAP	134000
TTM_SCR_BRK	39000
TTM_SCR_HLD	42000
TTM_SCR_SLD	15000
TTM_SCR_ALL	230000
TTM_SCR_S	221650
TTM_SCR_SS	228500
TTM_RAT_ACV	10065

