VERSION	0.00.00	1.03.00
FES_MODE	0
BPM_DEF	150.000	150.000	150.000	150.000
MET_DEF	4	4
RESOLUTION	384
CLK_DEF	384
COMPATIBLE_CODE	MA2

BPM	0	0	150.000
MET	0	0	4	4

TAP	2	0	0
TAP	2	192	0
TAP	3	0	0
TAP	3	96	0
TAP	3	192	0
BRK	3	288	0
TAP	4	0	7
TAP	4	192	7
TAP	5	0	7
TAP	5	96	7
TAP	5	192	7
TAP	6	0	0
TAP	6	192	0
TAP	7	0	0
TAP	7	96	0
TAP	7	192	0
TAP	8	0	1
TAP	8	192	1
TAP	9	0	1
TAP	9	96	1
TAP	9	192	1
TAP	10	0	2
TAP	10	192	2
TAP	11	0	2
TAP	11	96	3
TAP	11	192	2
TAP	12	0	3
TAP	12	192	3
TAP	13	0	3
TAP	13	96	3
TAP	13	192	3
TAP	14	0	4
TAP	14	192	4
TAP	15	0	4
TAP	15	96	4
TAP	15	192	3
TAP	15	288	3
TAP	16	0	3
TAP	16	0	4
TAP	16	192	3
TAP	16	192	4
TAP	17	0	5
TAP	17	192	5
TAP	18	0	5
TAP	18	96	5
TAP	18	192	5
TAP	19	0	6
TAP	19	192	6
TAP	20	0	6
TAP	20	96	7
TAP	20	192	6
TAP	21	0	7
TAP	21	192	7
TAP	22	0	7
TAP	22	96	7
TAP	22	192	7
TAP	23	0	0
TAP	23	192	0
TAP	24	0	0
TAP	24	96	0
TAP	24	192	7
TAP	24	288	7
TAP	25	0	0
TAP	25	0	7
TAP	25	192	0
TAP	25	192	7
STR	26	0	0
SI_	26	0	0	96	288	3
STR	28	0	7
SI_	28	0	7	96	288	4
TAP	30	0	0
TAP	30	96	0
TAP	30	192	0
TAP	31	0	7
TAP	31	96	7
TAP	31	192	7
TAP	32	0	0
TAP	32	0	7
TAP	32	96	0
TAP	32	96	7
TAP	32	192	0
TAP	32	192	7
STR	33	0	0
SI_	33	0	0	96	288	3
STR	33	0	7
SI_	33	0	7	96	288	4
TAP	35	0	2
TAP	35	96	3
TAP	35	192	2
TAP	36	0	5
TAP	36	96	4
TAP	36	192	5
TAP	37	0	2
TAP	37	0	3
TAP	37	192	4
TAP	37	192	5
TAP	38	0	3
TAP	38	96	4
TAP	38	192	3
TAP	39	0	5
TAP	39	96	4
TAP	39	192	5
TAP	40	0	2
TAP	40	96	3
TAP	40	192	2
TAP	41	0	4
TAP	41	96	4
TAP	41	192	5
TAP	41	288	5
HLD	42	0	6	192
HLD	42	0	7	192
TAP	43	0	1
TAP	43	96	0
TAP	43	192	1
TAP	44	0	6
TAP	44	96	7
TAP	44	192	6
TAP	45	0	0
TAP	45	0	1
TAP	45	192	6
TAP	45	192	7
TAP	46	0	0
TAP	46	96	7
TAP	46	192	0
TAP	47	0	6
TAP	47	96	7
TAP	47	192	6
TAP	48	0	1
TAP	48	96	0
TAP	48	192	1
TAP	49	0	7
TAP	49	96	7
TAP	49	192	6
TAP	49	288	6
HLD	50	0	4	192
HLD	50	0	5	192
TAP	51	0	2
TAP	51	0	3
TAP	51	192	4
TAP	51	192	5
HLD	52	0	2	192
HLD	52	0	3	192
TAP	53	0	4
TAP	53	192	4
TAP	54	0	5
TAP	54	192	5
TAP	55	0	6
TAP	55	192	6
TAP	56	0	7
TAP	56	96	7
BRK	56	192	7
TAP	57	0	0
TAP	57	96	0
TAP	57	192	7
TAP	57	288	7
TAP	58	0	0
TAP	58	96	7
TAP	58	192	0
TAP	59	0	6
TAP	59	0	7
TAP	59	96	6
TAP	59	96	7
TAP	59	192	6
TAP	59	192	7
TAP	60	0	0
TAP	60	0	1
TAP	60	96	0
TAP	60	96	1
TAP	60	192	0
TAP	60	192	1
TAP	61	0	7
TAP	61	96	7
TAP	61	192	0
TAP	61	288	0
TAP	62	0	7
TAP	62	96	0
TAP	62	192	7
TAP	63	0	0
TAP	63	0	1
TAP	63	192	6
TAP	63	192	7
HLD	64	0	0	192
HLD	64	0	1	192
BRK	65	0	7
TAP	65	192	7
TAP	66	0	0
TAP	66	96	0
TAP	66	192	0
TAP	67	0	7
TAP	67	96	7
TAP	67	192	6
TAP	67	288	6
TAP	68	0	5
TAP	68	96	4
TAP	68	192	5
TAP	69	0	3
TAP	69	96	3
TAP	69	192	2
TAP	69	288	2
TAP	70	0	1
TAP	70	96	0
TAP	70	192	1
TAP	71	0	0
TAP	71	0	1
TAP	71	192	6
TAP	71	192	7
HLD	72	0	0	192
HLD	72	0	1	192
TAP	73	0	6
TAP	73	0	7
TAP	73	192	0
TAP	73	192	1
HLD	74	0	6	576
HLD	74	0	7	576
TAP	76	0	0
TAP	76	192	0
TAP	77	0	1
TAP	77	192	1
TAP	78	0	2
TAP	78	192	2
TAP	79	0	3
TAP	79	96	4
TAP	79	192	3
BRK	80	0	3
BRK	80	0	4

T_REC_TAP	200
T_REC_BRK	5
T_REC_XTP	0
T_REC_HLD	12
T_REC_XHO	0
T_REC_STR	4
T_REC_BST	0
T_REC_XST	0
T_REC_TTP	0
T_REC_THO	0
T_REC_SLD	4
T_REC_ALL	225
T_NUM_TAP	204
T_NUM_BRK	5
T_NUM_HLD	12
T_NUM_SLD	4
T_NUM_ALL	225
T_JUDGE_TAP	209
T_JUDGE_HLD	64
T_JUDGE_SLD	4
T_JUDGE_ALL	277
TTM_EACHPAIRS	33
TTM_SCR_TAP	102000
TTM_SCR_BRK	13000
TTM_SCR_HLD	12000
TTM_SCR_SLD	6000
TTM_SCR_ALL	133000
TTM_SCR_S	128550
TTM_SCR_SS	132500
TTM_RAT_ACV	10037

