VERSION	0.00.00	1.03.00
FES_MODE	0
BPM_DEF	150.000	150.000	150.000	150.000
MET_DEF	4	4
RESOLUTION	384
CLK_DEF	384
COMPATIBLE_CODE	MA2

BPM	0	0	150.000
MET	0	0	4	4

STR	2	0	2
SCR	2	0	2	96	96	5
STR	2	192	7
SXR	2	192	7	96	120	7
STR	3	0	3
SF_	3	0	3	96	144	7
STR	4	0	1
SUL	4	0	1	96	48	5
STR	4	0	5
SI_	4	0	5	96	48	2
STR	4	192	1
SCR	4	192	1	96	48	4
STR	4	192	5
SCR	4	192	5	96	48	0
STR	5	0	1
SCR	5	0	1	96	48	4
STR	5	0	5
SCR	5	0	5	96	48	0
BRK	5	192	2
BRK	5	192	6
HLD	6	0	1	72
HLD	6	72	2	72
TAP	6	144	3
TAP	6	240	1
STR	6	240	4
SCR	6	240	4	96	48	6
TAP	6	336	7
TAP	7	48	6
STR	7	48	7
SCR	7	48	7	96	48	1
TAP	7	144	2
TAP	7	240	3
TAP	7	288	4
TAP	7	336	5
HLD	8	0	6	72
HLD	8	72	7	72
TAP	8	144	0
STR	8	240	1
SCR	8	240	1	96	48	3
TAP	8	240	6
TAP	8	336	4
TAP	9	48	3
STR	9	48	4
SCR	9	48	4	96	48	6
TAP	9	144	7
TAP	9	240	0
TAP	9	288	1
TAP	9	336	2
HLD	10	0	3	72
HLD	10	72	4	72
TAP	10	144	5
TAP	10	240	3
STR	10	240	6
SCR	10	240	6	96	48	0
TAP	10	336	1
TAP	11	48	0
STR	11	48	1
SCR	11	48	1	96	48	3
TAP	11	144	4
TAP	11	240	5
TAP	11	288	6
TAP	11	336	7
HLD	12	0	0	72
HLD	12	72	1	72
TAP	12	144	2
TAP	12	192	3
TAP	12	240	2
TAP	12	240	3
TAP	13	0	4
TAP	13	96	2
TAP	13	96	3
TAP	13	192	5
TAP	13	240	4
TAP	13	288	3
HLD	13	288	6	480
STR	14	0	5
SV_	14	0	5	96	48	7
STR	14	192	7
SV_	14	192	7	96	48	5
TAP	15	0	5
TAP	15	96	6
TAP	15	96	7
TAP	15	192	1
TAP	15	240	0
TAP	15	288	2
TAP	15	288	7
STR	16	0	0
SCR	16	0	0	96	48	3
TAP	16	0	3
STR	16	192	0
SCR	16	192	0	96	48	3
TAP	16	192	3
HLD	17	0	0	96
TAP	17	96	1
TAP	17	192	3
TAP	17	240	2
TAP	17	288	1
TAP	17	288	4
HLD	18	0	4	96
TAP	18	96	5
TAP	18	192	7
TAP	18	240	6
TAP	18	288	0
TAP	18	288	5
STR	19	0	4
SI_	19	0	4	96	32	2
TAP	19	0	5
STR	19	192	4
SI_	19	192	4	96	48	1
TAP	19	192	5
STR	20	0	4
SUR	20	0	4	96	216	7
SXR	20	0	4	96	216	0
TAP	20	0	5
TAP	21	0	3
TAP	21	96	4
TAP	21	96	5
TAP	21	192	2
TAP	21	240	3
TAP	21	288	1
TAP	21	288	4
TAP	22	0	1
TAP	22	0	2
TAP	22	96	1
TAP	22	96	3
TAP	22	192	1
TAP	22	192	2
TAP	22	288	1
TAP	22	288	3
TAP	23	0	2
TAP	23	96	0
TAP	23	96	1
TAP	23	192	6
TAP	23	240	7
TAP	23	288	0
HLD	23	288	5	384
TAP	24	0	6
TAP	24	96	4
TAP	24	192	6
TAP	24	288	4
STR	25	0	5
SCL	25	0	5	96	96	1
STR	25	96	1
SCL	25	96	1	96	96	5
TAP	25	192	5
TAP	25	288	1
STR	26	0	1
SI_	26	0	1	96	48	6
TAP	26	96	5
STR	26	192	5
SI_	26	192	5	96	48	2
TAP	26	288	1
STR	27	0	0
SV_	27	0	0	96	48	3
STR	27	0	7
SV_	27	0	7	96	48	4
STR	27	192	0
SI_	27	192	0	96	48	3
STR	27	192	7
SI_	27	192	7	96	48	4
STR	28	0	0
SCR	28	0	0	96	48	3
STR	28	0	7
SCL	28	0	7	96	48	4
TAP	28	192	2
TAP	28	192	5
TAP	28	288	0
TAP	28	288	7
HLD	29	0	3	72
HLD	29	72	4	72
TAP	29	144	5
HLD	29	192	4	72
HLD	29	264	5	72
TAP	29	336	6
HLD	30	0	5	72
HLD	30	72	6	72
TAP	30	144	7
STR	30	192	7
SCR	30	192	7	96	48	2
HLD	31	0	3	72
HLD	31	72	2	72
TAP	31	144	1
HLD	31	192	2	72
HLD	31	264	1	72
TAP	31	336	0
STR	32	0	0
SF_	32	0	0	96	48	4
STR	32	192	1
SI_	32	192	1	96	48	5
STR	32	192	7
SI_	32	192	7	96	48	3
HLD	33	0	4	72
HLD	33	72	3	72
TAP	33	144	2
HLD	33	192	3	72
HLD	33	264	2	72
TAP	33	336	1
HLD	34	0	2	72
HLD	34	72	1	72
TAP	34	144	0
STR	34	192	0
SCL	34	192	0	96	48	5
HLD	35	0	2	72
HLD	35	72	3	72
TAP	35	144	1
TAP	35	192	1
HLD	35	192	5	72
HLD	35	264	4	72
TAP	35	336	6
TAP	36	0	3
TAP	36	0	6
TAP	36	48	2
TAP	36	96	1
TAP	36	96	4
TAP	36	144	5
TAP	36	192	2
TAP	36	192	6
TAP	37	0	0
STR	37	0	1
SCR	37	0	1	96	48	4
TAP	37	72	5
TAP	37	144	7
TAP	37	192	0
STR	37	192	1
SCR	37	192	1	96	48	4
TAP	37	264	5
TAP	37	336	7
TAP	38	0	0
TAP	38	0	1
TAP	38	48	2
TAP	38	96	3
TAP	38	96	4
TAP	38	144	2
STR	38	192	0
SI_	38	192	0	96	48	4
STR	38	192	1
SCR	38	192	1	96	48	4
STR	39	0	6
SCL	39	0	6	96	48	3
TAP	39	0	7
TAP	39	72	2
TAP	39	144	1
TAP	39	192	0
STR	39	192	1
SCR	39	192	1	96	48	4
TAP	39	264	5
TAP	39	336	6
TAP	40	0	3
TAP	40	0	6
TAP	40	48	5
TAP	40	96	1
TAP	40	96	4
TAP	40	144	2
STR	40	192	3
SI_	40	192	3	96	48	0
TAP	40	192	6
STR	41	0	6
SCL	41	0	6	96	48	3
TAP	41	0	7
TAP	41	72	2
TAP	41	144	0
STR	41	192	6
SCL	41	192	6	96	48	3
TAP	41	192	7
TAP	41	264	2
TAP	41	336	0
TAP	42	0	6
TAP	42	0	7
TAP	42	48	5
TAP	42	96	3
TAP	42	96	4
TAP	42	144	5
TAP	42	192	6
TAP	42	192	7
TAP	42	288	5
STR	42	288	7
SI_	42	288	7	96	48	2
TAP	42	336	0
TAP	43	0	1
TAP	43	0	7
TAP	43	96	5
STR	43	96	7
SI_	43	96	7	96	48	3
TAP	43	144	0
TAP	43	192	1
TAP	43	192	7
TAP	43	288	5
STR	43	288	7
SI_	43	288	7	96	48	4
TAP	43	336	0
TAP	44	0	1
STR	44	0	7
SCR	44	0	7	96	72	3
TAP	44	192	4
TAP	44	240	4
TAP	44	240	5
TAP	44	288	3
TAP	44	288	6
STR	45	0	6
SCL	45	0	6	96	48	3
TAP	45	0	7
TAP	45	72	2
TAP	45	144	0
STR	45	192	6
SCL	45	192	6	96	48	3
TAP	45	192	7
TAP	45	264	2
TAP	45	336	0
TAP	46	0	6
TAP	46	0	7
TAP	46	48	5
TAP	46	96	3
TAP	46	96	4
TAP	46	144	5
STR	46	192	6
SCL	46	192	6	96	48	3
STR	46	192	7
SI_	46	192	7	96	48	3
TAP	47	0	0
STR	47	0	1
SCR	47	0	1	96	48	4
TAP	47	72	5
TAP	47	144	6
STR	47	192	6
SCL	47	192	6	96	48	3
TAP	47	192	7
TAP	47	264	2
TAP	47	336	1
TAP	48	0	1
TAP	48	0	4
TAP	48	48	2
TAP	48	96	3
TAP	48	96	6
TAP	48	144	5
TAP	48	192	1
TAP	48	192	4
TAP	49	0	0
STR	49	0	1
SCR	49	0	1	96	48	4
TAP	49	72	5
TAP	49	144	7
TAP	49	192	0
STR	49	192	1
SCR	49	192	1	96	48	4
TAP	49	264	5
TAP	49	336	7
TAP	50	0	0
TAP	50	0	1
TAP	50	48	2
TAP	50	96	3
TAP	50	96	4
TAP	50	144	2
TAP	50	192	0
TAP	50	192	1
STR	50	288	0
SI_	50	288	0	96	48	5
TAP	50	288	2
TAP	50	336	7
TAP	51	0	0
TAP	51	0	6
STR	51	96	0
SI_	51	96	0	96	48	4
TAP	51	96	2
TAP	51	144	7
TAP	51	192	0
TAP	51	192	6
STR	51	288	0
SI_	51	288	0	96	48	3
TAP	51	288	2
TAP	51	336	7
STR	52	0	0
SCL	52	0	0	96	72	4
TAP	52	0	6
TAP	52	192	1
BRK	52	240	0
BRK	52	240	7
BRK	52	288	1
BRK	52	288	6
HLD	53	0	2	72
HLD	53	72	3	72
TAP	53	144	4
TAP	53	240	2
STR	53	240	5
SCR	53	240	5	96	48	0
TAP	53	336	1
TAP	54	48	0
STR	54	48	1
SCR	54	48	1	96	48	4
TAP	54	144	5
TAP	54	240	7
TAP	54	288	6
TAP	54	336	5
HLD	55	0	5	72
HLD	55	72	4	72
TAP	55	144	3
STR	55	240	2
SCL	55	240	2	96	48	7
TAP	55	240	5
TAP	55	336	6
STR	56	48	6
SCL	56	48	6	96	48	3
TAP	56	48	7
TAP	56	144	2
TAP	56	240	0
TAP	56	288	1
TAP	56	336	2
HLD	57	0	2	72
HLD	57	72	3	72
TAP	57	144	4
TAP	57	240	2
STR	57	240	5
SCR	57	240	5	96	48	0
TAP	57	336	1
TAP	58	48	0
STR	58	48	1
SCR	58	48	1	96	48	4
TAP	58	144	5
TAP	58	240	7
TAP	58	288	6
TAP	58	336	5
HLD	59	0	5	72
HLD	59	72	4	72
TAP	59	144	3
TAP	59	192	2
TAP	59	240	2
TAP	59	240	3
TAP	60	0	0
TAP	60	0	7
TAP	60	192	1
TAP	60	192	4
TAP	60	240	2
TAP	60	264	3
TAP	60	312	3
TAP	60	336	2
TAP	61	0	1
TAP	61	0	4
TAP	61	240	4
TAP	61	240	5
TAP	61	288	3
TAP	61	288	6
TAP	62	0	5
TAP	62	0	6
TAP	62	96	0
TAP	62	96	7
TAP	62	192	1
TAP	62	192	2
TAP	62	288	3
TAP	62	288	4
TAP	63	0	2
TAP	63	0	5
TAP	63	192	3
TAP	63	216	4
TAP	63	240	3
TAP	63	264	4
TAP	63	288	2
TAP	63	288	5
STR	64	0	6
SCL	64	0	6	96	48	3
TAP	64	0	7
TAP	64	72	2
TAP	64	144	0
STR	64	192	6
SCL	64	192	6	96	48	3
TAP	64	192	7
TAP	64	264	2
TAP	64	336	0
TAP	65	0	6
TAP	65	0	7
TAP	65	48	5
TAP	65	96	3
TAP	65	96	4
TAP	65	144	5
TAP	65	192	6
TAP	65	192	7
TAP	65	288	5
STR	65	288	7
SCR	65	288	7	96	48	2
TAP	65	336	0
TAP	66	0	1
TAP	66	0	7
TAP	66	96	5
STR	66	96	7
SUR	66	96	7	96	48	3
TAP	66	144	0
TAP	66	192	1
TAP	66	192	7
TAP	66	288	5
STR	66	288	7
SV_	66	288	7	96	48	4
TAP	66	336	0
TAP	67	0	1
STR	67	0	7
SCR	67	0	7	96	72	3
TAP	67	192	4
TAP	67	240	4
TAP	67	240	5
TAP	67	288	3
TAP	67	288	6
STR	68	0	6
SLL	68	0	6	96	48	0
TAP	68	0	7
TAP	68	72	3
TAP	68	144	1
STR	68	192	6
SLL	68	192	6	96	48	0
TAP	68	192	7
TAP	68	264	3
TAP	68	336	1
TAP	69	0	5
TAP	69	0	7
TAP	69	48	4
TAP	69	96	1
TAP	69	96	3
TAP	69	144	4
STR	69	192	5
SI_	69	192	5	96	48	2
STR	69	192	7
SCR	69	192	7	96	48	2
TAP	70	0	0
STR	70	0	1
SLR	70	0	1	96	48	7
TAP	70	72	4
TAP	70	144	6
STR	70	192	6
SLL	70	192	6	96	48	0
TAP	70	192	7
TAP	70	264	3
TAP	70	336	1
TAP	71	0	1
TAP	71	0	4
TAP	71	48	2
TAP	71	96	3
TAP	71	96	7
TAP	71	144	6
TAP	71	192	1
TAP	71	192	5
TAP	72	0	0
STR	72	0	1
SLR	72	0	1	96	48	7
TAP	72	72	4
TAP	72	144	6
TAP	72	192	0
STR	72	192	1
SLR	72	192	1	96	48	7
TAP	72	264	4
TAP	72	336	6
TAP	73	0	0
TAP	73	0	2
TAP	73	48	3
TAP	73	96	4
TAP	73	96	6
TAP	73	144	3
TAP	73	192	0
TAP	73	192	2
STR	73	288	0
SCL	73	288	0	96	48	5
TAP	73	288	2
TAP	73	336	7
TAP	74	0	0
TAP	74	0	6
STR	74	96	0
SUL	74	96	0	96	48	4
TAP	74	96	2
TAP	74	144	7
TAP	74	192	0
TAP	74	192	6
STR	74	288	0
SV_	74	288	0	96	48	3
TAP	74	288	2
TAP	74	336	7
STR	75	0	0
SCL	75	0	0	96	96	4
TAP	75	0	6
TAP	75	288	5
STR	75	288	7
SV_	75	288	7	96	48	4
TAP	76	0	1
TAP	76	0	7
TAP	76	96	5
STR	76	96	7
SUR	76	96	7	96	48	3
TAP	76	192	1
TAP	76	192	7
TAP	76	288	5
STR	76	288	7
SI_	76	288	7	96	48	1
TAP	77	0	1
STR	77	0	7
SCL	77	0	7	96	216	2
HLD	78	0	3	72
HLD	78	72	4	72
TAP	78	144	5
TAP	78	240	3
STR	78	240	6
SCR	78	240	6	96	48	1
TAP	78	336	2
STR	79	48	2
SCR	79	48	2	96	48	5
TAP	79	48	3
TAP	79	144	6
TAP	79	240	7
TAP	79	288	6
TAP	79	336	5
HLD	80	0	4	72
HLD	80	72	3	72
TAP	80	144	2
STR	80	240	1
SCL	80	240	1	96	48	6
TAP	80	240	4
TAP	80	336	5
TAP	81	48	4
STR	81	48	5
SCL	81	48	5	96	48	2
TAP	81	144	1
TAP	81	240	0
TAP	81	288	1
TAP	81	336	2
HLD	82	0	3	72
HLD	82	72	4	72
TAP	82	144	5
TAP	82	240	3
STR	82	240	6
SCR	82	240	6	96	48	1
TAP	82	336	2
STR	83	48	2
SCR	83	48	2	96	48	5
TAP	83	48	3
TAP	83	144	6
TAP	83	240	7
TAP	83	288	6
TAP	83	336	5
HLD	84	0	4	72
HLD	84	72	3	72
TAP	84	144	2
TAP	84	192	1
STR	84	240	1
SI_	84	240	1	96	48	5
BRK	84	336	1
BST	84	336	7
SI_	84	336	7	96	48	2
BST	85	48	0
SCR	85	48	0	96	96	5
BRK	85	48	7
BRK	85	144	0
BRK	85	144	5

T_REC_TAP	388
T_REC_BRK	10
T_REC_XTP	0
T_REC_HLD	48
T_REC_XHO	0
T_REC_STR	97
T_REC_BST	2
T_REC_XST	0
T_REC_TTP	0
T_REC_THO	0
T_REC_SLD	100
T_REC_ALL	645
T_NUM_TAP	485
T_NUM_BRK	12
T_NUM_HLD	48
T_NUM_SLD	100
T_NUM_ALL	645
T_JUDGE_TAP	497
T_JUDGE_HLD	110
T_JUDGE_SLD	100
T_JUDGE_ALL	707
TTM_EACHPAIRS	153
TTM_SCR_TAP	242500
TTM_SCR_BRK	31200
TTM_SCR_HLD	48000
TTM_SCR_SLD	150000
TTM_SCR_ALL	471700
TTM_SCR_S	456400
TTM_SCR_SS	470500
TTM_RAT_ACV	10025

