VERSION	0.00.00	1.03.00
FES_MODE	0
BPM_DEF	150.000	150.000	150.000	150.000
MET_DEF	4	4
RESOLUTION	384
CLK_DEF	384
COMPATIBLE_CODE	MA2

BPM	0	0	150.000
MET	0	0	4	4

HLD	2	0	4	96
HLD	2	0	5	96
TAP	3	0	3
TAP	3	96	3
TAP	3	192	4
TAP	3	192	6
HLD	4	0	2	96
HLD	4	0	3	96
TAP	5	0	4
TAP	5	96	4
TAP	5	192	1
TAP	5	192	3
TAP	6	0	3
TAP	6	96	4
TAP	6	96	5
TAP	6	192	4
TAP	6	288	2
TAP	6	288	3
TAP	7	0	3
TAP	7	96	4
TAP	7	96	6
TAP	7	192	4
TAP	7	288	1
TAP	7	288	3
TAP	8	0	2
TAP	8	96	0
TAP	8	96	1
TAP	8	192	5
TAP	8	288	6
TAP	8	288	7
TAP	9	0	2
TAP	9	96	0
TAP	9	96	7
STR	9	192	0
SI_	9	192	0	96	48	3
TAP	9	192	7
TAP	10	0	4
TAP	10	96	2
TAP	10	96	3
TAP	10	192	3
TAP	10	288	4
TAP	10	288	5
TAP	11	0	4
TAP	11	96	1
TAP	11	96	3
TAP	11	192	3
TAP	11	288	4
TAP	11	288	6
TAP	12	0	5
STR	12	96	0
SCR	12	96	0	96	96	3
STR	12	96	7
SCL	12	96	7	96	96	4
TAP	13	0	3
HLD	13	0	5	288
TAP	13	192	4
TAP	13	288	4
HLD	14	0	2	288
TAP	14	0	4
TAP	14	192	3
TAP	14	288	3
TAP	15	0	4
HLD	15	0	6	288
TAP	15	192	5
TAP	15	288	5
STR	16	0	2
SCL	16	0	2	96	96	7
STR	16	0	3
SCR	16	0	3	96	96	6
HLD	17	0	2	288
TAP	17	0	4
TAP	17	192	3
TAP	17	288	3
TAP	18	0	3
HLD	18	0	5	288
TAP	18	192	4
TAP	18	288	4
HLD	19	0	2	96
HLD	19	0	3	96
HLD	19	192	4	96
HLD	19	192	5	96
STR	20	0	2
SCL	20	0	2	96	96	7
STR	20	0	3
SCR	20	0	3	96	96	6
STR	21	0	0
SCR	21	0	0	96	96	3
HLD	21	0	4	576
TAP	22	0	2
TAP	22	96	2
TAP	22	192	0
HLD	23	0	3	576
STR	23	0	4
SCR	23	0	4	96	96	7
TAP	24	0	5
TAP	24	96	5
TAP	24	192	7
STR	25	0	0
SCR	25	0	0	96	96	3
STR	25	0	6
SCL	25	0	6	96	96	3
STR	26	0	3
SV_	26	0	3	96	96	0
SV_	26	0	3	96	96	6
HLD	27	0	0	96
HLD	27	0	1	96
HLD	27	192	6	96
HLD	27	192	7	96
STR	28	0	0
SCL	28	0	0	96	96	5
STR	28	0	1
SCR	28	0	1	96	96	4
STR	29	0	2
SUL	29	0	2	96	96	6
HLD	29	0	3	192
HLD	30	0	4	192
STR	30	0	5
SUR	30	0	5	96	96	1
HLD	31	0	6	192
STR	31	0	7
SUR	31	0	7	96	96	3
TAP	32	0	3
TAP	32	0	4
BRK	32	96	6
BRK	32	96	7
BRK	32	192	0
BRK	32	192	7
BRK	32	288	0
BRK	32	288	1
STR	33	0	6
SUL	33	0	6	96	96	2
HLD	33	0	7	192
HLD	34	0	0	192
STR	34	0	1
SUR	34	0	1	96	96	5
HLD	35	0	2	192
STR	35	0	3
SUR	35	0	3	96	96	7
HLD	36	0	0	192
HLD	36	0	7	192
BRK	36	288	1
BRK	36	288	6
STR	37	0	1
SI_	37	0	1	96	48	6
TAP	37	0	4
TAP	37	192	0
STR	37	192	5
SI_	37	192	5	96	48	2
TAP	38	0	0
TAP	38	0	1
TAP	38	96	2
STR	38	96	3
SCR	38	96	3	96	96	6
TAP	39	0	3
STR	39	0	6
SI_	39	0	6	96	48	1
STR	39	192	2
SI_	39	192	2	96	48	5
TAP	39	192	7
TAP	40	0	4
TAP	40	0	6
TAP	40	96	2
TAP	40	96	3
BRK	40	192	1
BRK	40	192	6
STR	41	0	2
SI_	41	0	2	96	48	5
TAP	41	0	7
TAP	41	192	3
STR	41	192	6
SI_	41	192	6	96	48	1
TAP	42	0	2
TAP	42	0	3
STR	42	96	0
SCL	42	96	0	96	96	5
TAP	42	96	1
TAP	43	0	4
TAP	43	0	5
TAP	43	96	6
TAP	43	96	7
TAP	43	192	0
TAP	43	192	1
TAP	43	288	2
TAP	43	288	3
HLD	44	0	3	192
HLD	44	0	4	192
TAP	44	240	2
TAP	44	240	5
TAP	44	288	2
TAP	44	288	5
TAP	45	0	3
STR	45	0	6
SI_	45	0	6	96	48	1
STR	45	192	2
SI_	45	192	2	96	48	5
TAP	45	192	7
TAP	46	0	6
TAP	46	0	7
STR	46	96	4
SCL	46	96	4	96	96	1
TAP	46	96	5
STR	47	0	1
SI_	47	0	1	96	48	6
TAP	47	0	4
TAP	47	192	0
STR	47	192	5
SI_	47	192	5	96	48	2
TAP	48	0	1
TAP	48	0	3
TAP	48	96	4
TAP	48	96	5
BRK	48	192	1
BRK	48	192	6
TAP	49	0	0
STR	49	0	5
SI_	49	0	5	96	48	2
STR	49	192	1
SI_	49	192	1	96	48	6
TAP	49	192	4
TAP	50	0	4
TAP	50	0	5
TAP	50	96	6
STR	50	96	7
SCR	50	96	7	96	96	2
TAP	51	0	2
TAP	51	0	3
TAP	51	96	0
TAP	51	96	1
TAP	51	192	6
TAP	51	192	7
TAP	51	288	4
TAP	51	288	5
HLD	52	0	3	192
HLD	52	0	4	192
TAP	52	240	1
TAP	52	240	6
TAP	52	288	1
TAP	52	288	6
TAP	53	0	2
TAP	53	96	4
TAP	53	192	6
TAP	53	240	7
TAP	53	288	6
TAP	54	0	5
TAP	54	96	3
TAP	54	192	1
TAP	54	240	0
TAP	54	288	1
TAP	55	0	3
TAP	55	96	5
TAP	55	192	0
TAP	55	240	7
TAP	55	288	0
STR	56	0	2
SCL	56	0	2	96	96	5
TAP	56	0	5
TAP	56	288	1
TAP	56	288	6
TAP	57	0	5
TAP	57	96	3
TAP	57	192	1
TAP	57	240	0
TAP	57	288	1
TAP	58	0	2
TAP	58	96	4
TAP	58	192	6
TAP	58	240	7
TAP	58	288	6
TAP	59	0	4
TAP	59	96	2
TAP	59	192	0
TAP	59	192	7
TAP	59	240	0
TAP	59	240	7
HLD	60	0	2	288
HLD	60	0	5	288
TAP	61	0	3
TAP	61	0	4
TAP	61	240	6
TAP	61	240	7
TAP	61	288	6
TAP	61	288	7
HLD	62	0	1	96
HLD	62	0	6	96
HLD	62	192	2	96
HLD	62	192	5	96
HLD	63	0	3	192
HLD	63	0	4	192
BRK	63	288	0
BRK	63	288	7
TAP	64	0	1
STR	64	0	5
SCL	64	0	5	96	48	2
STR	64	192	1
SCL	64	192	1	96	48	6
TAP	64	192	5
TAP	65	0	2
TAP	65	0	3
STR	65	96	0
SCL	65	96	0	96	96	5
STR	65	96	1
SUL	65	96	1	96	96	4
TAP	66	0	3
TAP	66	0	4
TAP	66	96	1
TAP	66	96	3
TAP	66	192	0
TAP	66	192	7
TAP	66	288	4
TAP	66	288	6
STR	67	0	0
SCL	67	0	0	96	96	5
SCR	67	0	0	96	96	3
TAP	67	240	1
TAP	67	240	6
TAP	67	288	1
TAP	67	288	6
STR	68	0	2
SCR	68	0	2	96	48	5
TAP	68	0	6
TAP	68	192	2
STR	68	192	6
SCR	68	192	6	96	48	1
TAP	69	0	4
TAP	69	0	5
STR	69	96	6
SUR	69	96	6	96	96	3
STR	69	96	7
SCR	69	96	7	96	96	2
TAP	70	0	1
STR	70	0	5
SCL	70	0	5	96	48	2
STR	70	192	1
SCL	70	192	1	96	48	6
TAP	70	192	5
TAP	71	0	4
TAP	71	0	5
TAP	71	96	2
TAP	71	96	3
BRK	71	192	1
BRK	71	192	6
STR	72	0	1
SCL	72	0	1	96	48	6
TAP	72	0	5
TAP	72	192	1
STR	72	192	5
SCL	72	192	5	96	48	2
TAP	73	0	3
TAP	73	0	4
STR	73	96	2
SUR	73	96	2	96	96	7
STR	73	96	5
SUL	73	96	5	96	96	0
TAP	74	0	3
TAP	74	0	4
TAP	74	96	5
TAP	74	96	6
TAP	74	192	0
TAP	74	192	7
TAP	74	288	1
TAP	74	288	2
TAP	75	0	3
TAP	75	0	4
STR	75	96	1
SUL	75	96	1	96	96	4
STR	75	96	6
SUR	75	96	6	96	96	3
TAP	76	0	2
TAP	76	0	7
TAP	76	192	0
TAP	76	192	5
TAP	77	0	3
TAP	77	0	4
TAP	77	288	1
TAP	77	288	6
HLD	78	0	3	96
TAP	78	0	4
TAP	78	96	2
TAP	78	192	3
HLD	78	192	4	96
TAP	78	288	5
HLD	79	0	2	96
TAP	79	0	3
TAP	79	96	1
TAP	79	192	4
HLD	79	192	5	96
TAP	79	288	6
TAP	80	0	0
HLD	80	0	1	96
TAP	80	96	2
HLD	80	192	6	96
TAP	80	192	7
TAP	80	288	5
TAP	81	0	0
TAP	81	0	4
TAP	81	96	2
TAP	81	96	6
TAP	81	192	0
TAP	81	192	4
TAP	81	288	2
TAP	81	288	6
TAP	82	0	4
HLD	82	0	5	96
TAP	82	96	6
HLD	82	192	2	96
TAP	82	192	3
TAP	82	288	1
HLD	83	0	6	96
TAP	83	0	7
TAP	83	96	5
TAP	83	192	0
HLD	83	192	1	96
TAP	83	288	2
STR	84	0	3
SCL	84	0	3	96	96	0
STR	84	0	7
SCL	84	0	7	96	96	4
BRK	84	336	1
BRK	84	336	6
BRK	85	48	3
BRK	85	48	4
BRK	85	144	0
BRK	85	144	7

T_REC_TAP	238
T_REC_BRK	22
T_REC_XTP	0
T_REC_HLD	49
T_REC_XHO	0
T_REC_STR	56
T_REC_BST	0
T_REC_XST	0
T_REC_TTP	0
T_REC_THO	0
T_REC_SLD	58
T_REC_ALL	423
T_NUM_TAP	294
T_NUM_BRK	22
T_NUM_HLD	49
T_NUM_SLD	58
T_NUM_ALL	423
T_JUDGE_TAP	316
T_JUDGE_HLD	174
T_JUDGE_SLD	58
T_JUDGE_ALL	548
TTM_EACHPAIRS	147
TTM_SCR_TAP	147000
TTM_SCR_BRK	57200
TTM_SCR_HLD	49000
TTM_SCR_SLD	87000
TTM_SCR_ALL	340200
TTM_SCR_S	327900
TTM_SCR_SS	338000
TTM_RAT_ACV	10065

