VERSION	0.00.00	1.03.00
FES_MODE	0
BPM_DEF	150.000	150.000	150.000	150.000
MET_DEF	4	4
RESOLUTION	384
CLK_DEF	384
COMPATIBLE_CODE	MA2

BPM	0	0	150.000
MET	0	0	4	4

STR	2	0	0
SI_	2	0	0	96	192	3
STR	3	0	4
SI_	3	0	4	96	192	7
STR	4	0	1
SUR	4	0	1	96	192	6
TAP	5	0	7
TAP	5	96	0
TAP	5	192	1
TAP	5	192	6
TAP	6	0	1
TAP	6	96	2
TAP	6	192	3
TAP	6	192	4
TAP	7	0	6
TAP	7	96	5
TAP	7	192	3
TAP	7	192	4
TAP	8	0	4
TAP	8	96	5
TAP	8	192	6
STR	8	288	7
SSL	8	288	7	96	288	3
TAP	10	0	2
TAP	10	96	1
TAP	10	192	0
TAP	10	192	7
TAP	11	0	5
TAP	11	96	6
TAP	11	192	0
TAP	11	192	7
STR	12	0	5
SI_	12	0	5	96	192	2
TAP	13	0	0
TAP	13	96	1
TAP	13	192	2
TAP	13	192	7
TAP	14	0	7
TAP	14	96	6
TAP	14	192	0
TAP	14	192	5
TAP	15	0	3
TAP	15	96	2
TAP	15	192	1
TAP	15	192	4
TAP	16	0	4
TAP	16	96	5
TAP	16	192	3
TAP	16	192	6
TAP	17	0	2
TAP	17	96	2
TAP	17	192	3
TAP	17	288	3
TAP	18	0	4
TAP	18	96	4
TAP	18	192	5
TAP	18	288	5
TAP	19	0	4
TAP	19	0	5
TAP	19	192	2
TAP	19	192	3
STR	20	0	0
SI_	20	0	0	96	192	3
STR	20	0	7
SI_	20	0	7	96	192	4
TAP	21	0	4
TAP	21	96	5
TAP	21	192	3
TAP	21	192	6
TAP	21	288	3
TAP	21	288	6
TAP	22	0	3
TAP	22	96	2
TAP	22	192	1
TAP	22	192	4
TAP	23	0	7
TAP	23	96	6
TAP	23	192	0
TAP	23	192	5
TAP	23	288	0
TAP	23	288	5
TAP	24	0	0
TAP	24	96	1
TAP	24	192	2
TAP	24	192	7
TAP	25	0	5
TAP	25	96	5
TAP	25	192	4
TAP	25	288	4
TAP	26	0	3
TAP	26	96	3
TAP	26	192	2
TAP	26	288	2
TAP	27	0	6
TAP	27	0	7
TAP	27	192	0
TAP	27	192	1
STR	28	0	7
SUL	28	0	7	96	192	3
HLD	29	0	2	192
TAP	29	192	3
TAP	29	288	2
TAP	29	288	3
HLD	30	0	5	192
TAP	30	192	4
TAP	30	288	4
TAP	30	288	5
HLD	31	0	3	96
HLD	31	0	4	96
TAP	31	192	2
TAP	31	192	5
TAP	31	288	1
TAP	31	288	6
BRK	32	0	0
BRK	32	0	1
BRK	32	96	0
BRK	32	96	1
BRK	32	192	6
BRK	32	192	7
HLD	33	0	5	192
TAP	33	192	4
TAP	33	288	4
TAP	33	288	5
HLD	34	0	2	192
TAP	34	192	3
TAP	34	288	2
TAP	34	288	3
TAP	35	0	1
TAP	35	0	4
TAP	35	192	3
TAP	35	192	6
STR	36	0	1
SI_	36	0	1	96	192	5
STR	36	0	6
SI_	36	0	6	96	192	2
TAP	37	0	1
TAP	37	96	0
TAP	37	96	1
TAP	37	192	6
TAP	37	288	6
TAP	37	288	7
TAP	38	0	0
TAP	38	0	7
TAP	38	96	0
TAP	38	96	7
TAP	38	192	1
TAP	38	192	6
TAP	39	0	1
TAP	39	96	0
TAP	39	96	1
TAP	39	192	6
TAP	39	288	6
TAP	39	288	7
BRK	40	0	6
BRK	40	0	7
BRK	40	96	0
BRK	40	96	1
BRK	40	192	6
BRK	40	192	7
TAP	41	0	2
TAP	41	96	2
TAP	41	96	3
TAP	41	192	5
TAP	41	288	4
TAP	41	288	5
TAP	42	0	2
TAP	42	96	5
TAP	42	192	3
TAP	42	192	4
TAP	42	288	3
TAP	42	288	4
STR	43	0	3
SI_	43	0	3	96	192	0
STR	43	0	4
SI_	43	0	4	96	192	7
STR	44	0	0
SUR	44	0	0	96	192	4
TAP	45	0	6
TAP	45	96	6
TAP	45	96	7
TAP	45	192	1
TAP	45	288	0
TAP	45	288	1
TAP	46	0	0
TAP	46	0	7
TAP	46	96	0
TAP	46	96	7
TAP	46	192	1
TAP	46	192	6
TAP	47	0	6
TAP	47	96	6
TAP	47	96	7
TAP	47	192	1
TAP	47	288	0
TAP	47	288	1
BRK	48	0	0
BRK	48	0	1
BRK	48	96	6
BRK	48	96	7
BRK	48	192	0
BRK	48	192	1
TAP	49	0	5
TAP	49	96	4
TAP	49	96	5
TAP	49	192	2
TAP	49	288	2
TAP	49	288	3
TAP	50	0	5
TAP	50	96	2
TAP	50	192	3
TAP	50	192	4
TAP	50	288	3
TAP	50	288	4
STR	51	0	3
SCL	51	0	3	96	192	0
STR	51	0	4
SCR	51	0	4	96	192	7
STR	52	0	7
SUL	52	0	7	96	192	3
TAP	53	0	2
TAP	53	96	1
TAP	53	96	3
TAP	53	192	0
TAP	53	192	4
TAP	54	0	5
TAP	54	96	4
TAP	54	96	6
TAP	54	192	3
TAP	54	192	7
TAP	55	0	0
TAP	55	96	1
TAP	55	192	2
STR	55	288	3
SSL	55	288	3	96	288	7
TAP	57	0	6
TAP	57	96	5
TAP	57	96	7
TAP	57	192	0
TAP	57	192	4
TAP	58	0	1
TAP	58	96	0
TAP	58	96	2
TAP	58	192	3
TAP	58	192	7
STR	59	0	1
SCL	59	0	1	96	192	6
HLD	60	0	0	288
HLD	60	0	6	288
HLD	61	0	1	288
HLD	61	0	7	288
TAP	62	0	1
TAP	62	0	7
TAP	62	96	1
TAP	62	96	7
TAP	62	192	0
TAP	62	192	6
TAP	62	288	0
TAP	62	288	6
STR	63	0	6
SCR	63	0	6	96	192	2
TAP	64	0	2
TAP	64	0	3
TAP	64	96	1
TAP	64	96	4
TAP	64	192	4
TAP	64	192	5
TAP	64	288	3
TAP	64	288	6
TAP	65	0	5
TAP	65	96	2
TAP	65	192	1
TAP	65	192	6
TAP	65	288	1
TAP	65	288	6
STR	66	0	0
SI_	66	0	0	96	192	4
STR	66	0	7
SI_	66	0	7	96	192	3
STR	67	0	3
SI_	67	0	3	96	192	0
STR	67	0	4
SI_	67	0	4	96	192	7
TAP	68	0	0
TAP	68	0	1
TAP	68	96	2
TAP	68	96	7
TAP	68	192	6
TAP	68	192	7
TAP	68	288	0
TAP	68	288	5
TAP	69	0	1
TAP	69	96	6
TAP	69	192	0
TAP	69	192	7
TAP	69	288	0
TAP	69	288	7
TAP	70	0	0
TAP	70	0	1
TAP	70	96	2
TAP	70	96	7
TAP	70	192	6
TAP	70	192	7
TAP	70	288	0
TAP	70	288	5
BRK	71	0	0
BRK	71	0	5
BRK	71	96	2
BRK	71	96	7
BRK	71	192	0
BRK	71	192	5
TAP	72	0	2
TAP	72	0	3
TAP	72	96	1
TAP	72	96	4
TAP	72	192	4
TAP	72	192	5
TAP	72	288	3
TAP	72	288	6
TAP	73	0	5
TAP	73	96	4
TAP	73	192	4
TAP	73	192	5
TAP	73	288	4
TAP	73	288	5
STR	74	0	4
SI_	74	0	4	96	192	1
STR	74	0	5
SI_	74	0	5	96	192	0
STR	75	0	0
SCL	75	0	0	96	192	5
STR	75	0	1
SCR	75	0	1	96	192	4
TAP	76	0	6
TAP	76	0	7
TAP	76	192	0
TAP	76	192	1
STR	77	0	0
SI_	77	0	0	96	192	3
STR	77	0	7
SI_	77	0	7	96	192	4
TAP	78	0	1
TAP	78	96	2
TAP	78	192	3
TAP	78	192	4
TAP	79	0	6
TAP	79	96	5
TAP	79	192	3
TAP	79	192	4
TAP	80	0	4
TAP	80	96	5
TAP	80	192	6
STR	80	288	7
SSL	80	288	7	96	288	3
TAP	82	0	2
TAP	82	96	1
TAP	82	192	0
TAP	82	192	7
TAP	83	0	5
TAP	83	96	6
TAP	83	192	0
TAP	83	192	7
TAP	84	0	0
TAP	84	0	7
TAP	84	336	1
TAP	84	336	6
TAP	85	48	2
TAP	85	48	5
BRK	85	144	3
BRK	85	144	4

T_REC_TAP	273
T_REC_BRK	26
T_REC_XTP	0
T_REC_HLD	10
T_REC_XHO	0
T_REC_STR	30
T_REC_BST	0
T_REC_XST	0
T_REC_TTP	0
T_REC_THO	0
T_REC_SLD	30
T_REC_ALL	369
T_NUM_TAP	303
T_NUM_BRK	26
T_NUM_HLD	10
T_NUM_SLD	30
T_NUM_ALL	369
T_JUDGE_TAP	329
T_JUDGE_HLD	44
T_JUDGE_SLD	30
T_JUDGE_ALL	403
TTM_EACHPAIRS	117
TTM_SCR_TAP	151500
TTM_SCR_BRK	67600
TTM_SCR_HLD	10000
TTM_SCR_SLD	45000
TTM_SCR_ALL	274100
TTM_SCR_S	263400
TTM_SCR_SS	271500
TTM_RAT_ACV	10095

