VERSION	0.00.00	1.03.00
FES_MODE	0
BPM_DEF	150.000	150.000	150.000	150.000
MET_DEF	4	4
RESOLUTION	384
CLK_DEF	384
COMPATIBLE_CODE	MA2

BPM	0	0	150.000
MET	0	0	4	4

HLD	2	0	0	384
HLD	4	0	7	384
TAP	6	0	0
TAP	6	192	0
TAP	7	0	1
TAP	7	192	1
TAP	8	0	2
TAP	8	192	2
TAP	9	0	3
TAP	9	96	3
TAP	9	192	3
TAP	9	192	4
TAP	10	0	4
TAP	10	192	4
TAP	11	0	5
TAP	11	192	5
TAP	12	0	6
TAP	12	0	7
BRK	12	192	6
BRK	12	192	7
TAP	13	0	7
TAP	13	192	7
TAP	14	0	7
TAP	14	96	7
TAP	14	192	7
TAP	15	0	6
TAP	15	192	6
TAP	16	0	6
TAP	16	96	6
TAP	16	192	6
TAP	17	0	5
TAP	17	192	5
TAP	18	0	5
TAP	18	96	5
TAP	18	192	5
TAP	19	0	4
TAP	19	0	5
TAP	19	192	2
TAP	19	192	3
HLD	20	0	3	192
HLD	20	0	4	192
TAP	21	0	3
TAP	21	192	3
TAP	22	0	3
TAP	22	96	3
TAP	22	192	3
TAP	23	0	2
TAP	23	192	2
TAP	24	0	2
TAP	24	96	2
TAP	24	192	2
TAP	25	0	1
TAP	25	192	1
TAP	26	0	1
TAP	26	96	1
TAP	26	192	1
TAP	27	0	0
TAP	27	0	1
TAP	27	192	6
TAP	27	192	7
HLD	28	0	0	192
HLD	28	0	7	192
STR	29	0	1
SI_	29	0	1	96	288	4
STR	31	0	6
SI_	31	0	6	96	288	3
STR	33	0	0
SI_	33	0	0	96	288	4
STR	35	0	7
SI_	35	0	7	96	288	3
TAP	37	0	2
TAP	37	0	3
TAP	37	192	4
TAP	37	192	5
TAP	38	0	3
TAP	38	96	4
TAP	38	192	3
TAP	39	0	4
TAP	39	96	4
TAP	39	192	5
TAP	39	288	5
TAP	40	0	6
TAP	40	0	7
TAP	40	96	6
TAP	40	96	7
TAP	40	192	6
TAP	40	192	7
TAP	41	0	0
TAP	41	0	1
TAP	41	192	6
TAP	41	192	7
TAP	42	0	0
TAP	42	96	7
TAP	42	192	0
TAP	43	0	7
TAP	43	96	7
TAP	43	192	6
TAP	43	288	6
HLD	44	0	4	192
HLD	44	0	5	192
TAP	45	0	4
TAP	45	0	5
TAP	45	192	2
TAP	45	192	3
TAP	46	0	4
TAP	46	96	3
TAP	46	192	4
TAP	47	0	3
TAP	47	96	3
TAP	47	192	2
TAP	47	288	2
TAP	48	0	0
TAP	48	0	1
TAP	48	96	0
TAP	48	96	1
TAP	48	192	0
TAP	48	192	1
TAP	49	0	6
TAP	49	0	7
TAP	49	192	0
TAP	49	192	1
TAP	50	0	7
TAP	50	96	0
TAP	50	192	7
TAP	51	0	0
TAP	51	96	0
TAP	51	192	1
TAP	51	288	1
HLD	52	0	2	192
HLD	52	0	3	192
TAP	53	0	4
TAP	53	192	4
TAP	54	0	5
TAP	54	192	5
TAP	55	0	6
TAP	55	192	6
TAP	56	0	7
TAP	56	96	0
TAP	56	192	7
TAP	57	0	0
TAP	57	192	0
TAP	58	0	1
TAP	58	192	1
TAP	59	0	2
TAP	59	192	2
TAP	60	0	3
TAP	60	0	4
TAP	61	0	3
TAP	61	0	4
TAP	62	0	3
TAP	62	192	4
BRK	63	0	3
BRK	63	0	4
TAP	64	0	4
TAP	64	0	5
TAP	64	192	2
TAP	64	192	3
TAP	65	0	4
TAP	65	96	3
TAP	65	192	4
TAP	66	0	3
TAP	66	96	3
TAP	66	192	2
TAP	66	288	2
HLD	67	0	0	192
HLD	67	0	1	192
TAP	68	0	6
TAP	68	0	7
TAP	68	192	0
TAP	68	192	1
TAP	69	0	7
TAP	69	96	0
TAP	69	192	7
TAP	70	0	0
TAP	70	96	0
TAP	70	192	1
TAP	70	288	1
TAP	71	0	2
TAP	71	0	3
TAP	71	96	2
TAP	71	96	3
BRK	71	192	2
BRK	71	192	3
TAP	72	0	4
TAP	72	0	5
TAP	72	192	2
TAP	72	192	3
TAP	73	0	4
TAP	73	96	3
TAP	73	192	4
TAP	74	0	3
TAP	74	96	3
TAP	74	192	4
TAP	74	288	4
HLD	75	0	3	192
TAP	76	0	4
TAP	76	96	4
TAP	76	192	3
TAP	76	288	3
TAP	77	0	3
TAP	77	0	4
TAP	78	0	3
TAP	78	96	3
TAP	78	192	3
TAP	79	0	2
TAP	79	96	2
TAP	79	192	2
TAP	80	0	1
TAP	80	96	1
TAP	80	192	1
TAP	81	0	0
TAP	81	96	7
TAP	81	192	0
TAP	82	0	7
TAP	82	96	7
TAP	82	192	7
TAP	83	0	6
TAP	83	96	6
TAP	83	192	6
TAP	84	0	5
TAP	84	96	5
STR	84	192	5
SI_	84	192	5	96	288	2

T_REC_TAP	194
T_REC_BRK	6
T_REC_XTP	0
T_REC_HLD	13
T_REC_XHO	0
T_REC_STR	5
T_REC_BST	0
T_REC_XST	0
T_REC_TTP	0
T_REC_THO	0
T_REC_SLD	5
T_REC_ALL	223
T_NUM_TAP	199
T_NUM_BRK	6
T_NUM_HLD	13
T_NUM_SLD	5
T_NUM_ALL	223
T_JUDGE_TAP	205
T_JUDGE_HLD	60
T_JUDGE_SLD	5
T_JUDGE_ALL	270
TTM_EACHPAIRS	39
TTM_SCR_TAP	99500
TTM_SCR_BRK	15600
TTM_SCR_HLD	13000
TTM_SCR_SLD	7500
TTM_SCR_ALL	135600
TTM_SCR_S	130950
TTM_SCR_SS	135000
TTM_RAT_ACV	10044

