VERSION	0.00.00	1.03.00
FES_MODE	0
BPM_DEF	145.000	145.000	145.000	145.000
MET_DEF	4	4
RESOLUTION	384
CLK_DEF	384
COMPATIBLE_CODE	MA2

BPM	0	0	145.000
MET	0	0	4	4

TAP	9	0	3
TAP	9	0	4
TAP	9	96	3
TAP	9	96	4
TAP	9	144	2
TAP	9	144	5
TAP	9	192	1
TAP	9	192	6
TAP	9	288	0
TAP	9	288	7
TAP	10	0	1
TAP	10	24	0
TAP	10	72	0
TAP	10	96	1
STR	10	144	6
SCL	10	144	6	96	48	3
TAP	10	168	7
TAP	10	216	7
TAP	10	240	6
TAP	10	288	0
TAP	10	336	1
TAP	11	0	2
TAP	11	24	3
TAP	11	72	3
TAP	11	96	2
STR	11	144	5
SI_	11	144	5	96	48	0
TAP	11	168	4
TAP	11	216	4
TAP	11	240	5
TAP	11	288	1
TAP	12	0	6
TAP	12	24	7
TAP	12	72	7
TAP	12	96	6
STR	12	144	1
SCR	12	144	1	96	48	4
TAP	12	168	0
TAP	12	216	0
TAP	12	240	1
TAP	12	288	7
TAP	12	336	6
TAP	13	0	5
TAP	13	24	4
TAP	13	72	4
TAP	13	96	5
STR	13	144	2
SI_	13	144	2	96	48	7
TAP	13	168	3
TAP	13	216	3
TAP	13	240	2
TAP	13	288	6
TAP	14	0	5
TAP	14	24	4
TAP	14	72	4
TAP	14	96	3
STR	14	144	3
SI_	14	144	3	96	48	7
TAP	14	168	2
TAP	14	216	2
TAP	14	240	3
TAP	14	288	0
TAP	14	336	1
TAP	15	0	2
TAP	15	24	3
TAP	15	72	3
TAP	15	96	4
STR	15	144	4
SI_	15	144	4	96	48	0
TAP	15	168	5
TAP	15	216	5
TAP	15	240	4
TAP	15	288	7
TAP	16	0	1
TAP	16	24	0
TAP	16	72	0
TAP	16	96	7
STR	16	144	7
SI_	16	144	7	96	48	3
TAP	16	168	6
TAP	16	216	6
TAP	16	240	7
TAP	16	288	4
TAP	16	336	5
TAP	17	0	6
TAP	17	24	7
TAP	17	72	7
TAP	17	96	0
TAP	17	144	0
TAP	17	144	7
STR	17	192	1
SI_	17	192	1	96	48	3
STR	17	192	6
SI_	17	192	6	96	48	4
TAP	18	0	2
TAP	18	0	4
TAP	18	48	5
TAP	18	96	2
TAP	18	96	4
HLD	18	192	2	96
TAP	18	192	4
TAP	18	240	3
HLD	18	288	5	96
TAP	18	336	4
STR	19	0	1
SI_	19	0	1	96	48	5
TAP	19	96	0
TAP	19	96	1
TAP	19	192	7
TAP	19	240	6
TAP	19	288	5
TAP	19	336	4
TAP	20	0	3
TAP	20	0	5
TAP	20	48	2
TAP	20	96	3
TAP	20	96	5
TAP	20	192	3
HLD	20	192	5	96
TAP	20	240	4
HLD	20	288	2	96
TAP	20	336	3
STR	21	0	6
SLR	21	0	6	96	96	3
TAP	21	288	6
TAP	21	288	7
TAP	22	0	4
TAP	22	0	5
TAP	22	48	3
TAP	22	48	6
TAP	22	96	2
TAP	22	96	7
TAP	22	144	1
TAP	22	168	0
TAP	22	216	6
TAP	22	240	7
TAP	22	288	0
TAP	22	288	5
TAP	23	0	6
TAP	23	0	7
TAP	23	48	0
TAP	23	48	5
TAP	23	96	1
TAP	23	96	4
TAP	23	144	2
TAP	23	168	3
TAP	23	216	5
TAP	23	240	4
TAP	23	288	3
TAP	23	288	6
STR	23	336	2
SCL	23	336	2	96	240	5
TAP	23	336	7
HLD	25	0	5	72
HLD	25	72	4	72
HLD	25	144	3	48
TAP	25	192	2
TAP	25	288	1
TAP	25	288	6
HLD	26	0	4	192
TAP	26	0	6
TAP	26	144	7
TAP	26	192	7
TAP	26	288	2
TAP	26	288	4
TAP	27	0	1
HLD	27	0	3	192
TAP	27	144	0
TAP	27	192	0
TAP	27	288	3
TAP	27	288	5
TAP	28	0	6
TAP	28	0	7
TAP	28	48	5
TAP	28	96	4
TAP	28	192	0
TAP	28	192	1
TAP	28	240	2
TAP	28	288	3
BRK	29	0	5
BRK	29	0	6
BRK	29	96	1
BRK	29	96	2
BST	29	192	3
SI_	29	192	3	96	48	0
BST	29	192	4
SI_	29	192	4	96	48	7
HLD	30	0	0	192
TAP	30	0	2
TAP	30	144	3
TAP	30	192	3
TAP	30	288	3
TAP	30	288	4
TAP	31	0	5
HLD	31	0	7	192
TAP	31	144	4
TAP	31	192	4
TAP	31	288	3
TAP	31	288	4
HLD	32	0	0	96
TAP	32	0	1
TAP	32	48	2
TAP	32	96	3
TAP	32	192	6
HLD	32	192	7	96
TAP	32	240	5
TAP	32	288	4
BRK	33	0	1
BRK	33	0	6
STR	34	0	0
SI_	34	0	0	96	48	5
STR	34	0	1
SI_	34	0	1	96	48	4
BRK	34	96	0
BRK	34	96	1
STR	34	192	6
SI_	34	192	6	96	48	3
STR	34	192	7
SI_	34	192	7	96	48	2
BRK	34	288	6
BRK	34	288	7
TAP	35	0	0
TAP	35	0	1
TAP	35	48	3
TAP	35	96	6
TAP	35	96	7
TAP	35	144	4
STR	35	192	0
SCL	35	192	0	96	48	5
STR	35	192	1
SCR	35	192	1	96	48	4
TAP	36	0	6
TAP	36	0	7
TAP	36	48	5
TAP	36	96	3
TAP	36	96	4
TAP	36	144	2
TAP	36	192	0
TAP	36	192	1
TAP	36	288	3
TAP	36	288	7
TAP	36	336	2
TAP	36	336	6
TAP	37	0	1
STR	37	0	5
SI_	37	0	5	96	48	1
STR	37	96	0
SI_	37	96	0	96	48	4
TAP	37	96	5
TAP	37	192	0
STR	37	192	7
SI_	37	192	7	96	48	3
TAP	37	288	2
TAP	37	288	7
STR	38	0	0
SCR	38	0	0	96	48	3
TAP	38	0	5
TAP	38	72	6
TAP	38	96	6
TAP	38	144	7
STR	38	192	0
SCL	38	192	0	96	48	5
TAP	38	192	4
TAP	38	264	2
TAP	38	288	2
TAP	38	336	1
STR	39	0	0
SI_	39	0	0	96	48	4
TAP	39	0	4
TAP	39	72	5
TAP	39	96	5
TAP	39	144	6
TAP	39	192	3
STR	39	192	7
SF_	39	192	7	96	48	3
HLD	40	0	2	192
TAP	40	48	3
TAP	40	96	4
TAP	40	144	5
HLD	40	192	6	192
TAP	40	240	3
TAP	40	288	2
TAP	40	336	1
STR	41	0	0
SI_	41	0	0	96	48	4
TAP	41	96	0
STR	41	96	7
SI_	41	96	7	96	48	3
STR	41	192	1
SCL	41	192	1	96	48	6
TAP	41	192	7
TAP	41	288	1
TAP	41	288	6
STR	42	0	4
SI_	42	0	4	96	48	1
STR	42	0	5
SI_	42	0	5	96	48	0
BRK	42	96	4
BRK	42	96	5
STR	42	192	2
SI_	42	192	2	96	48	7
STR	42	192	3
SI_	42	192	3	96	48	6
BRK	42	288	2
BRK	42	288	3
TAP	43	0	4
TAP	43	0	5
TAP	43	48	0
TAP	43	96	2
TAP	43	96	3
TAP	43	144	7
STR	43	192	4
SCL	43	192	4	96	48	1
STR	43	192	5
SCR	43	192	5	96	48	0
TAP	44	0	2
TAP	44	0	3
TAP	44	48	1
TAP	44	96	0
TAP	44	96	7
TAP	44	144	6
TAP	44	192	4
TAP	44	192	5
TAP	44	288	3
TAP	44	288	7
TAP	44	336	2
TAP	44	336	6
STR	45	0	1
SI_	45	0	1	96	48	5
TAP	45	0	5
TAP	45	96	1
STR	45	96	7
SI_	45	96	7	96	48	3
STR	45	192	0
SI_	45	192	0	96	48	4
TAP	45	192	7
TAP	45	288	0
TAP	45	288	5
TAP	46	0	2
STR	46	0	7
SCL	46	0	7	96	48	4
TAP	46	72	1
TAP	46	96	1
TAP	46	144	0
TAP	46	192	3
STR	46	192	7
SCR	46	192	7	96	48	2
TAP	46	264	5
TAP	46	288	5
TAP	46	336	6
TAP	47	0	3
STR	47	0	7
SI_	47	0	7	96	48	3
TAP	47	72	2
TAP	47	96	2
TAP	47	144	1
STR	47	192	0
SF_	47	192	0	96	48	4
TAP	47	192	4
TAP	48	0	5
TAP	48	48	0
TAP	48	48	1
TAP	48	96	2
TAP	48	144	6
TAP	48	144	7
STR	48	192	5
SCL	48	192	5	96	48	2
TAP	48	288	1
TAP	48	336	0
STR	49	0	7
SF_	49	0	7	96	48	3
TAP	49	96	7
BRK	49	192	1
BRK	49	192	6
BRK	49	224	1
BRK	49	224	6
BRK	49	256	1
BRK	49	256	6
BRK	49	288	1
BRK	49	288	6
HLD	50	0	2	144
HLD	50	144	3	144
TAP	50	288	4
HLD	51	0	5	144
HLD	51	144	4	144
TAP	51	288	3
HLD	52	0	1	144
HLD	52	144	3	144
TAP	52	288	4
TAP	53	0	6
STR	53	48	6
SCL	53	48	6	96	96	3
HLD	53	144	1	144
TAP	53	288	2
TAP	54	0	2
HLD	54	0	3	96
TAP	54	96	4
HLD	54	192	4	96
TAP	54	192	5
TAP	54	288	3
TAP	55	0	2
TAP	55	0	4
TAP	55	96	3
TAP	55	96	5
TAP	55	192	4
TAP	55	192	6
TAP	55	240	7
TAP	55	288	7
STR	56	0	0
SCL	56	0	0	96	96	5
TAP	56	0	1
TAP	56	144	2
TAP	56	192	2
TAP	56	288	3
TAP	56	288	4
TAP	57	0	6
STR	57	0	7
SCR	57	0	7	96	96	2
TAP	57	144	5
TAP	57	192	5
TAP	57	288	3
TAP	57	288	4
HLD	58	0	4	96
TAP	58	0	5
TAP	58	96	3
TAP	58	192	2
HLD	58	192	3	96
TAP	58	288	4
TAP	59	0	3
TAP	59	0	5
TAP	59	96	2
TAP	59	96	4
TAP	59	192	1
TAP	59	192	3
TAP	59	240	0
TAP	59	288	0
TAP	60	0	6
STR	60	0	7
SCR	60	0	7	96	96	2
TAP	60	144	5
TAP	60	192	5
TAP	60	288	3
TAP	60	288	4
TAP	61	0	0
TAP	61	0	1
TAP	61	96	2
TAP	61	192	3
TAP	61	288	4
TAP	62	0	3
HLD	62	0	4	192
TAP	62	144	5
TAP	62	192	5
TAP	62	288	3
TAP	62	288	5
HLD	63	0	3	192
TAP	63	0	4
TAP	63	144	2
TAP	63	192	2
TAP	63	288	2
TAP	63	288	4
HLD	64	0	4	96
HLD	64	0	5	96
HLD	64	192	2	96
HLD	64	192	3	96
TAP	65	0	3
TAP	65	0	4
HLD	66	0	3	384
HLD	67	0	4	384
TAP	68	0	3
TAP	68	96	2
TAP	68	192	1
TAP	68	288	0
STR	69	0	7
SI_	69	0	7	96	48	3
BST	69	96	7
SCL	69	96	7	96	48	4
SCR	69	96	7	96	48	2
BST	69	192	7
SF_	69	192	7	96	48	3
BRK	69	288	7
BRK	70	0	1
BST	70	0	4
SCR	70	0	4	96	48	7
TAP	70	72	2
TAP	70	96	2
TAP	70	144	3
TAP	70	192	0
STR	70	192	4
SCL	70	192	4	96	48	1
TAP	70	264	6
TAP	70	288	6
TAP	70	336	5
TAP	71	0	0
STR	71	0	4
SI_	71	0	4	96	48	0
TAP	71	72	1
TAP	71	96	1
TAP	71	144	2
STR	71	192	3
SF_	71	192	3	96	48	7
TAP	71	192	7
TAP	72	0	0
TAP	72	48	1
TAP	72	48	7
TAP	72	96	2
TAP	72	96	6
TAP	72	144	3
TAP	72	144	5
TAP	72	192	4
TAP	72	240	3
TAP	72	240	5
TAP	72	288	2
TAP	72	288	6
TAP	72	336	1
TAP	72	336	7
STR	73	0	0
SI_	73	0	0	96	48	4
BST	73	96	0
SCL	73	96	0	96	48	5
SCR	73	96	0	96	48	3
BST	73	192	0
SF_	73	192	0	96	48	4
BRK	73	288	0
STR	74	0	3
SF_	74	0	3	96	48	7
BRK	74	96	3
STR	74	192	4
SF_	74	192	4	96	48	0
BRK	74	288	4
TAP	75	0	2
TAP	75	0	3
TAP	75	48	7
TAP	75	96	4
TAP	75	96	5
TAP	75	144	0
TAP	75	192	2
TAP	75	192	3
BRK	75	288	6
BRK	75	288	7
BST	75	336	6
SXR	75	336	6	96	240	3
BST	75	336	7
SXL	75	336	7	96	240	2
TAP	77	0	4
TAP	77	0	5
TAP	77	48	7
TAP	77	96	2
TAP	77	96	3
TAP	77	144	0
TAP	77	192	3
TAP	77	192	5
TAP	77	240	2
TAP	77	264	4
BRK	77	288	2
STR	78	0	3
SCL	78	0	3	96	48	0
TAP	78	0	6
TAP	78	72	5
TAP	78	96	5
TAP	78	144	4
STR	78	192	3
SCR	78	192	3	96	48	6
TAP	78	192	7
TAP	78	264	1
TAP	78	288	1
TAP	78	336	2
STR	79	0	3
SI_	79	0	3	96	48	7
TAP	79	0	7
TAP	79	72	6
TAP	79	96	6
TAP	79	144	5
TAP	79	192	0
STR	79	192	4
SF_	79	192	4	96	48	0
TAP	80	0	0
TAP	80	0	6
TAP	80	48	5
TAP	80	96	1
TAP	80	96	7
TAP	80	144	2
TAP	80	192	3
TAP	80	192	6
TAP	80	240	5
TAP	80	288	1
TAP	80	288	4
TAP	80	336	2
HLD	81	0	3	192
HLD	81	0	4	192

T_REC_TAP	387
T_REC_BRK	30
T_REC_XTP	0
T_REC_HLD	36
T_REC_XHO	0
T_REC_STR	58
T_REC_BST	9
T_REC_XST	0
T_REC_TTP	0
T_REC_THO	0
T_REC_SLD	69
T_REC_ALL	589
T_NUM_TAP	445
T_NUM_BRK	39
T_NUM_HLD	36
T_NUM_SLD	69
T_NUM_ALL	589
T_JUDGE_TAP	484
T_JUDGE_HLD	110
T_JUDGE_SLD	69
T_JUDGE_ALL	663
TTM_EACHPAIRS	141
TTM_SCR_TAP	222500
TTM_SCR_BRK	101400
TTM_SCR_HLD	36000
TTM_SCR_SLD	103500
TTM_SCR_ALL	463400
TTM_SCR_S	445750
TTM_SCR_SS	459500
TTM_RAT_ACV	10084

