VERSION	0.00.00	1.03.00
FES_MODE	0
BPM_DEF	145.000	145.000	145.000	145.000
MET_DEF	4	4
RESOLUTION	384
CLK_DEF	384
COMPATIBLE_CODE	MA2

BPM	0	0	145.000
MET	0	0	4	4

HLD	2	0	2	384
TAP	2	192	3
HLD	3	0	3	384
TAP	3	192	4
HLD	4	0	4	384
TAP	4	192	5
HLD	5	0	5	192
TAP	5	192	4
HLD	6	0	3	192
HLD	6	0	4	192
HLD	7	0	2	192
HLD	7	0	3	192
HLD	8	0	4	192
HLD	8	0	5	192
TAP	9	0	3
TAP	9	96	4
TAP	9	192	3
TAP	9	192	4
TAP	9	288	2
TAP	9	288	5
TAP	10	0	1
TAP	10	96	0
TAP	10	96	2
TAP	10	192	3
TAP	10	288	0
TAP	10	288	1
TAP	11	0	6
TAP	11	96	5
TAP	11	96	7
TAP	11	192	4
TAP	11	288	6
TAP	11	288	7
TAP	12	0	0
TAP	12	96	1
TAP	12	96	7
TAP	12	192	2
TAP	12	288	0
TAP	12	288	7
TAP	13	0	4
TAP	13	0	5
TAP	13	96	6
TAP	13	96	7
TAP	13	192	0
TAP	13	192	7
TAP	13	288	0
TAP	13	288	1
TAP	14	0	6
TAP	14	96	5
TAP	14	96	7
TAP	14	192	4
TAP	14	288	6
TAP	14	288	7
TAP	15	0	1
TAP	15	96	0
TAP	15	96	2
TAP	15	192	3
TAP	15	288	0
TAP	15	288	1
TAP	16	0	7
TAP	16	96	0
TAP	16	96	6
TAP	16	192	5
TAP	16	288	0
TAP	16	288	7
TAP	17	0	2
TAP	17	0	3
TAP	17	96	0
TAP	17	96	1
TAP	17	192	0
TAP	17	192	7
TAP	17	288	6
TAP	17	288	7
HLD	18	0	5	384
TAP	18	96	4
TAP	18	192	3
TAP	18	288	3
HLD	19	0	2	384
TAP	19	96	3
TAP	19	192	4
TAP	19	288	5
HLD	20	0	6	384
TAP	20	96	4
TAP	20	192	3
TAP	20	288	2
TAP	21	0	1
TAP	21	96	3
TAP	21	192	4
TAP	21	288	6
HLD	22	0	2	384
TAP	22	96	3
TAP	22	192	4
TAP	22	288	4
HLD	23	0	5	384
TAP	23	96	4
TAP	23	192	3
TAP	23	288	2
HLD	24	0	1	384
TAP	24	96	3
TAP	24	192	4
TAP	24	288	5
TAP	25	0	6
TAP	25	96	4
TAP	25	192	3
TAP	25	192	4
TAP	26	0	6
TAP	26	96	3
TAP	26	96	4
STR	26	192	6
SI_	26	192	6	96	48	4
TAP	27	0	1
TAP	27	96	3
TAP	27	96	4
STR	27	192	1
SI_	27	192	1	96	48	3
TAP	28	0	7
TAP	28	96	4
TAP	28	96	5
STR	28	192	7
SI_	28	192	7	96	48	4
TAP	29	0	2
TAP	29	0	3
TAP	29	96	4
TAP	29	96	5
TAP	29	192	1
TAP	29	192	6
TAP	30	0	1
TAP	30	96	3
TAP	30	96	4
STR	30	192	1
SI_	30	192	1	96	48	3
TAP	31	0	6
TAP	31	96	3
TAP	31	96	4
STR	31	192	6
SI_	31	192	6	96	48	4
TAP	32	0	0
TAP	32	96	2
TAP	32	96	3
STR	32	192	0
SI_	32	192	0	96	48	3
TAP	33	0	3
TAP	33	0	4
BRK	34	0	6
STR	34	0	7
SI_	34	0	7	96	48	2
TAP	34	192	6
STR	34	192	7
SI_	34	192	7	96	48	2
TAP	35	0	4
TAP	35	0	5
TAP	35	96	2
TAP	35	96	4
TAP	35	192	0
TAP	35	192	1
TAP	35	288	0
TAP	35	288	7
HLD	36	0	5	96
HLD	36	96	7	96
HLD	36	192	0	96
TAP	36	288	2
TAP	37	0	3
TAP	37	0	5
TAP	37	96	1
TAP	37	96	3
TAP	37	192	0
TAP	37	192	7
TAP	37	288	6
TAP	37	288	7
HLD	38	0	4	96
HLD	38	0	6	96
TAP	38	144	1
TAP	38	144	3
HLD	38	192	1	96
HLD	38	192	3	96
TAP	38	336	4
TAP	38	336	6
HLD	39	0	4	96
HLD	39	0	6	96
TAP	39	192	0
TAP	39	192	7
TAP	40	0	4
TAP	40	0	5
TAP	40	96	6
TAP	40	96	7
TAP	40	192	0
TAP	40	192	1
TAP	40	288	2
TAP	40	288	3
STR	41	0	4
SI_	41	0	4	96	48	0
SI_	41	0	4	96	48	6
TAP	41	192	7
TAP	41	288	0
STR	42	0	0
SI_	42	0	0	96	48	5
BRK	42	0	1
STR	42	192	0
SI_	42	192	0	96	48	5
TAP	42	192	1
TAP	43	0	2
TAP	43	0	3
TAP	43	96	3
TAP	43	96	5
TAP	43	192	6
TAP	43	192	7
TAP	43	288	0
TAP	43	288	7
HLD	44	0	2	96
HLD	44	96	0	96
HLD	44	192	7	96
TAP	44	288	5
TAP	45	0	2
TAP	45	0	4
TAP	45	96	4
TAP	45	96	6
TAP	45	192	0
TAP	45	192	7
TAP	45	288	0
TAP	45	288	1
HLD	46	0	1	96
HLD	46	0	3	96
TAP	46	144	4
TAP	46	144	6
HLD	46	192	4	96
HLD	46	192	6	96
TAP	46	336	1
TAP	46	336	3
HLD	47	0	1	96
HLD	47	0	3	96
TAP	47	192	0
TAP	47	192	7
TAP	48	0	2
TAP	48	0	3
TAP	48	96	0
TAP	48	96	1
TAP	48	192	6
TAP	48	192	7
TAP	48	288	4
TAP	48	288	5
HLD	49	0	2	96
HLD	49	0	3	96
TAP	49	192	2
TAP	49	192	5
TAP	49	288	3
TAP	49	288	4
TAP	50	0	2
STR	50	0	3
SI_	50	0	3	96	48	6
STR	50	192	2
SI_	50	192	2	96	48	7
TAP	51	0	5
TAP	51	96	4
TAP	51	192	3
TAP	51	288	2
TAP	52	0	6
STR	52	0	7
SI_	52	0	7	96	48	2
STR	52	192	6
SI_	52	192	6	96	48	3
TAP	53	0	2
TAP	53	96	3
TAP	53	192	4
TAP	53	288	5
HLD	54	0	2	96
TAP	54	96	3
HLD	54	192	4	96
TAP	54	288	3
STR	55	0	2
SCR	55	0	2	96	96	5
TAP	55	240	6
TAP	55	288	6
TAP	56	0	2
TAP	56	0	3
TAP	56	96	1
TAP	56	192	4
TAP	56	192	5
TAP	56	288	6
TAP	57	0	3
TAP	57	0	4
STR	57	96	5
SCL	57	96	5	96	96	2
HLD	58	0	5	96
TAP	58	96	4
HLD	58	192	3	96
TAP	58	288	4
STR	59	0	5
SCL	59	0	5	96	96	2
TAP	59	240	1
TAP	59	288	1
TAP	60	0	4
TAP	60	0	5
TAP	60	96	6
TAP	60	192	2
TAP	60	192	3
TAP	60	288	1
TAP	61	0	3
TAP	61	0	4
STR	61	96	2
SCR	61	96	2	96	96	5
TAP	62	0	5
TAP	62	96	4
TAP	62	192	5
TAP	62	288	4
TAP	62	288	5
TAP	63	0	2
TAP	63	96	3
TAP	63	192	2
TAP	63	288	2
TAP	63	288	3
STR	64	0	5
SXR	64	0	5	96	288	2
HLD	66	0	3	1056
HLD	66	0	4	1056
BRK	69	0	2
BRK	69	0	5
BRK	69	96	0
BRK	69	96	7
BRK	69	192	1
BRK	69	192	6
BRK	69	288	2
BRK	69	288	5
HLD	70	0	2	96
BST	70	0	3
SI_	70	0	3	96	48	0
STR	70	192	4
SI_	70	192	4	96	48	7
HLD	70	192	5	96
HLD	71	0	2	192
STR	71	0	3
SCR	71	0	3	96	96	0
TAP	72	0	4
TAP	72	0	5
TAP	72	96	5
TAP	72	96	7
TAP	72	192	2
TAP	72	192	3
TAP	72	288	0
TAP	72	288	2
STR	73	0	0
SCR	73	0	0	96	96	3
STR	73	0	7
SCL	73	0	7	96	96	4
TAP	73	288	1
TAP	73	288	6
STR	74	0	4
SI_	74	0	4	96	48	7
HLD	74	0	5	96
HLD	74	192	2	96
STR	74	192	3
SI_	74	192	3	96	48	0
STR	75	0	4
SCL	75	0	4	96	96	7
HLD	75	0	5	192
TAP	75	288	0
TAP	75	288	5
TAP	76	0	3
TAP	76	48	3
TAP	76	96	2
TAP	76	96	4
TAP	76	192	5
TAP	76	240	5
TAP	76	288	4
TAP	76	288	6
TAP	77	0	1
TAP	77	48	1
TAP	77	96	0
TAP	77	96	2
TAP	77	192	7
TAP	77	240	7
TAP	77	288	0
TAP	77	288	6
HLD	78	0	1	96
HLD	78	0	2	96
TAP	78	144	5
TAP	78	144	6
HLD	78	192	5	96
HLD	78	192	6	96
TAP	78	336	1
TAP	78	336	2
HLD	79	0	1	96
HLD	79	0	2	96
TAP	79	192	0
TAP	79	192	7
TAP	80	0	4
TAP	80	0	5
TAP	80	96	6
TAP	80	96	7
TAP	80	192	0
TAP	80	192	1
TAP	80	288	2
TAP	80	288	3
TAP	81	0	4
TAP	81	0	5
STR	81	96	2
SI_	81	96	2	96	96	5
TAP	81	96	3

T_REC_TAP	273
T_REC_BRK	10
T_REC_XTP	0
T_REC_HLD	54
T_REC_XHO	0
T_REC_STR	28
T_REC_BST	1
T_REC_XST	0
T_REC_TTP	0
T_REC_THO	0
T_REC_SLD	30
T_REC_ALL	396
T_NUM_TAP	301
T_NUM_BRK	11
T_NUM_HLD	54
T_NUM_SLD	30
T_NUM_ALL	396
T_JUDGE_TAP	312
T_JUDGE_HLD	220
T_JUDGE_SLD	30
T_JUDGE_ALL	562
TTM_EACHPAIRS	123
TTM_SCR_TAP	150500
TTM_SCR_BRK	28600
TTM_SCR_HLD	54000
TTM_SCR_SLD	45000
TTM_SCR_ALL	278100
TTM_SCR_S	268700
TTM_SCR_SS	277000
TTM_RAT_ACV	10039

