VERSION	0.00.00	1.03.00
FES_MODE	0
BPM_DEF	145.000	145.000	145.000	145.000
MET_DEF	4	4
RESOLUTION	384
CLK_DEF	384
COMPATIBLE_CODE	MA2

BPM	0	0	145.000
MET	0	0	4	4

STR	2	0	0
SCR	2	0	0	96	576	7
STR	4	0	7
SCL	4	0	7	96	576	0
STR	6	0	0
SI_	6	0	0	96	192	4
STR	7	0	7
SI_	7	0	7	96	192	3
STR	8	0	3
SI_	8	0	3	96	192	0
STR	8	0	4
SI_	8	0	4	96	192	7
BRK	9	192	1
BRK	9	192	6
TAP	10	0	2
TAP	10	96	3
TAP	10	192	2
TAP	10	192	3
TAP	10	288	2
TAP	10	288	3
TAP	11	0	5
TAP	11	96	4
TAP	11	192	4
TAP	11	192	5
TAP	11	288	4
TAP	11	288	5
TAP	12	0	2
TAP	12	96	2
TAP	12	96	3
TAP	12	192	5
TAP	12	288	4
TAP	12	288	5
TAP	13	0	3
TAP	13	96	4
TAP	13	192	2
TAP	13	192	5
TAP	14	0	1
TAP	14	96	0
TAP	14	192	0
TAP	14	192	1
TAP	14	288	0
TAP	14	288	1
TAP	15	0	6
TAP	15	96	7
TAP	15	192	6
TAP	15	192	7
TAP	15	288	6
TAP	15	288	7
TAP	16	0	1
TAP	16	96	0
TAP	16	96	1
TAP	16	192	6
TAP	16	288	6
TAP	16	288	7
TAP	17	0	0
TAP	17	96	7
TAP	17	192	1
TAP	17	192	6
TAP	18	0	3
TAP	18	96	2
TAP	18	192	2
TAP	18	192	3
TAP	19	0	4
TAP	19	96	5
TAP	19	192	4
TAP	19	192	5
TAP	20	0	1
TAP	20	96	0
TAP	20	192	0
TAP	20	192	1
TAP	21	0	6
TAP	21	96	7
TAP	21	192	6
TAP	21	192	7
TAP	22	0	0
TAP	22	96	1
TAP	22	192	2
TAP	22	288	3
TAP	23	0	4
TAP	23	96	5
TAP	23	192	6
STR	23	288	7
SSL	23	288	7	96	288	3
STR	25	0	1
SI_	25	0	1	96	192	6
HLD	26	0	5	192
TAP	26	192	4
TAP	26	288	4
TAP	26	288	5
HLD	27	0	2	192
TAP	27	192	3
TAP	27	288	2
TAP	27	288	3
TAP	28	0	4
TAP	28	0	5
TAP	28	96	3
TAP	28	96	6
TAP	28	192	2
TAP	28	192	3
TAP	28	288	1
TAP	28	288	4
TAP	29	0	4
TAP	29	0	5
TAP	29	96	2
TAP	29	96	3
BRK	29	192	1
BRK	29	192	6
HLD	30	0	6	192
TAP	30	192	7
TAP	30	288	6
TAP	30	288	7
HLD	31	0	1	192
TAP	31	192	0
TAP	31	288	0
TAP	31	288	1
TAP	32	0	6
TAP	32	96	7
TAP	32	192	1
TAP	32	288	0
BRK	33	0	1
BRK	33	0	6
TAP	34	0	6
TAP	34	0	7
TAP	34	96	0
TAP	34	96	5
TAP	34	192	0
TAP	34	192	1
TAP	34	288	2
TAP	34	288	7
TAP	35	0	0
TAP	35	0	7
TAP	35	96	0
TAP	35	96	7
TAP	35	192	1
TAP	35	192	6
TAP	36	0	0
TAP	36	96	1
TAP	36	192	2
TAP	36	288	3
TAP	37	0	3
TAP	37	0	4
TAP	37	96	2
TAP	37	96	5
TAP	37	192	1
TAP	37	192	6
TAP	37	288	1
TAP	37	288	6
TAP	38	0	1
TAP	38	0	7
TAP	38	96	1
TAP	38	96	7
TAP	38	192	0
TAP	38	192	6
TAP	38	288	0
TAP	38	288	6
STR	39	0	0
SUL	39	0	0	96	192	3
HLD	40	0	2	96
HLD	40	0	3	96
HLD	40	192	4	96
HLD	40	192	5	96
TAP	41	0	5
TAP	41	96	2
TAP	41	192	3
TAP	41	192	4
TAP	42	0	2
TAP	42	0	3
TAP	42	96	1
TAP	42	96	4
TAP	42	192	4
TAP	42	192	5
TAP	42	288	3
TAP	42	288	6
TAP	43	0	3
TAP	43	0	4
TAP	43	96	3
TAP	43	96	4
TAP	43	192	2
TAP	43	192	5
TAP	44	0	4
TAP	44	96	5
TAP	44	192	6
TAP	44	288	7
TAP	45	0	0
TAP	45	0	7
TAP	45	96	1
TAP	45	96	6
TAP	45	192	2
TAP	45	192	5
TAP	45	288	2
TAP	45	288	5
TAP	46	0	3
TAP	46	0	5
TAP	46	96	3
TAP	46	96	5
TAP	46	192	2
TAP	46	192	4
TAP	46	288	2
TAP	46	288	4
STR	47	0	4
SUL	47	0	4	96	192	7
HLD	48	0	0	96
HLD	48	0	6	96
HLD	48	192	1	96
HLD	48	192	7	96
TAP	49	0	0
TAP	49	0	7
TAP	49	96	0
TAP	49	96	7
BRK	49	192	1
BRK	49	192	6
STR	50	0	3
SXL	50	0	3	96	480	0
STR	52	0	4
SXR	52	0	4	96	480	7
HLD	54	0	2	96
TAP	54	96	3
HLD	54	192	2	96
TAP	54	288	3
TAP	55	0	2
TAP	55	96	3
TAP	55	192	2
TAP	55	192	3
STR	55	288	2
SUR	55	288	2	96	288	4
TAP	57	0	3
TAP	57	0	5
TAP	57	96	3
TAP	57	96	5
TAP	57	192	3
TAP	57	192	5
HLD	58	0	5	96
TAP	58	96	4
HLD	58	192	5	96
TAP	58	288	4
TAP	59	0	5
TAP	59	96	4
TAP	59	192	4
TAP	59	192	5
STR	59	288	5
SUL	59	288	5	96	288	3
TAP	61	0	2
TAP	61	0	4
TAP	61	96	2
TAP	61	96	4
TAP	61	192	2
TAP	61	192	4
STR	62	0	3
SI_	62	0	3	96	192	0
STR	62	0	4
SI_	62	0	4	96	192	7
TAP	63	0	1
TAP	63	96	2
TAP	63	192	3
TAP	63	288	4
BRK	64	0	5
HLD	66	0	5	192
TAP	66	192	4
HLD	67	0	2	192
TAP	67	192	3
HLD	68	0	1	96
HLD	68	0	6	96
HLD	68	192	2	96
HLD	68	192	5	96
BRK	69	0	3
BRK	69	0	4
TAP	69	96	3
TAP	69	96	4
TAP	69	192	2
TAP	69	192	5
TAP	69	288	1
TAP	69	288	6
TAP	70	0	1
TAP	70	0	7
TAP	70	96	1
TAP	70	96	7
TAP	70	192	0
TAP	70	192	6
TAP	70	288	0
TAP	70	288	6
STR	71	0	0
SUL	71	0	0	96	192	3
HLD	72	0	2	96
HLD	72	0	3	96
HLD	72	192	4	96
HLD	72	192	5	96
TAP	73	0	5
TAP	73	96	2
TAP	73	192	3
TAP	73	192	4
TAP	74	0	0
TAP	74	0	6
TAP	74	96	1
TAP	74	96	5
TAP	74	192	1
TAP	74	192	7
TAP	74	288	2
TAP	74	288	6
TAP	75	0	0
TAP	75	0	6
TAP	75	96	1
TAP	75	96	7
TAP	75	192	0
TAP	75	192	6
STR	75	288	7
SCL	75	288	7	96	384	0
TAP	77	192	0
TAP	77	192	7
TAP	78	0	6
TAP	78	96	7
TAP	78	192	6
TAP	78	192	7
TAP	79	0	1
TAP	79	96	0
TAP	79	192	0
TAP	79	192	1
TAP	80	0	0
TAP	80	0	7
TAP	80	96	0
TAP	80	96	7
TAP	80	192	1
TAP	80	192	6
TAP	80	288	1
TAP	80	288	6
BRK	81	0	2
BRK	81	0	5

T_REC_TAP	251
T_REC_BRK	13
T_REC_XTP	0
T_REC_HLD	26
T_REC_XHO	0
T_REC_STR	18
T_REC_BST	0
T_REC_XST	0
T_REC_TTP	0
T_REC_THO	0
T_REC_SLD	18
T_REC_ALL	326
T_NUM_TAP	269
T_NUM_BRK	13
T_NUM_HLD	26
T_NUM_SLD	18
T_NUM_ALL	326
T_JUDGE_TAP	282
T_JUDGE_HLD	64
T_JUDGE_SLD	18
T_JUDGE_ALL	364
TTM_EACHPAIRS	107
TTM_SCR_TAP	134500
TTM_SCR_BRK	33800
TTM_SCR_HLD	26000
TTM_SCR_SLD	27000
TTM_SCR_ALL	221300
TTM_SCR_S	213400
TTM_SCR_SS	220000
TTM_RAT_ACV	10059

