VERSION	0.00.00	1.03.00
FES_MODE	0
BPM_DEF	145.000	145.000	145.000	145.000
MET_DEF	4	4
RESOLUTION	384
CLK_DEF	384
COMPATIBLE_CODE	MA2

BPM	0	0	145.000
MET	0	0	4	4

TAP	2	0	3
TAP	3	0	3
TAP	4	0	2
TAP	5	0	2
TAP	6	0	1
TAP	7	0	1
TAP	8	0	0
TAP	9	0	0
TAP	9	96	0
TAP	9	192	0
TAP	10	0	7
TAP	10	96	7
TAP	10	192	7
TAP	11	0	6
TAP	11	96	6
TAP	11	192	6
TAP	12	0	5
TAP	12	96	5
TAP	12	192	5
TAP	13	0	4
TAP	13	96	4
TAP	13	192	3
TAP	13	288	3
TAP	14	0	4
TAP	14	96	4
TAP	14	192	4
TAP	15	0	3
TAP	15	96	3
TAP	15	192	3
TAP	16	0	2
TAP	16	96	2
TAP	16	192	2
TAP	17	0	0
TAP	17	0	1
TAP	17	96	0
TAP	17	96	1
TAP	17	192	0
TAP	17	192	1
HLD	18	0	0	192
TAP	19	0	0
TAP	19	192	0
TAP	19	192	7
HLD	20	0	7	192
TAP	21	0	7
TAP	21	192	0
TAP	21	192	7
TAP	22	0	1
TAP	22	96	1
TAP	22	192	1
TAP	23	0	2
TAP	23	96	2
TAP	23	192	2
HLD	24	0	3	192
TAP	25	0	4
TAP	25	96	4
TAP	25	192	3
TAP	25	192	4
HLD	26	0	4	192
HLD	26	0	5	192
TAP	27	0	4
TAP	27	96	4
TAP	27	192	3
TAP	27	192	4
TAP	28	0	4
TAP	28	96	4
TAP	28	192	5
TAP	28	288	5
TAP	29	0	4
TAP	29	0	5
TAP	29	96	4
TAP	29	96	5
TAP	29	192	4
TAP	29	192	5
HLD	30	0	2	192
HLD	30	0	3	192
TAP	31	0	3
TAP	31	96	3
TAP	31	192	3
TAP	31	192	4
TAP	32	0	3
TAP	32	96	3
TAP	32	192	2
TAP	32	288	2
TAP	33	0	2
TAP	33	0	3
BRK	33	192	3
TAP	34	0	4
TAP	34	96	4
TAP	34	192	4
TAP	35	0	5
TAP	35	96	5
TAP	35	192	4
TAP	35	192	5
TAP	36	0	6
TAP	36	96	6
TAP	36	192	7
TAP	36	288	7
TAP	37	0	0
TAP	37	96	0
TAP	37	192	0
TAP	37	192	7
TAP	38	0	0
TAP	38	0	1
TAP	38	192	6
TAP	38	192	7
TAP	39	0	0
TAP	39	0	1
TAP	39	96	0
TAP	39	96	1
TAP	39	192	0
TAP	39	192	1
TAP	40	0	2
TAP	40	96	2
TAP	40	192	3
TAP	40	288	3
TAP	41	0	4
TAP	41	96	4
TAP	41	192	3
TAP	41	192	4
TAP	42	0	3
TAP	42	96	3
TAP	42	192	3
TAP	43	0	2
TAP	43	96	2
TAP	43	192	2
TAP	43	192	3
TAP	44	0	1
TAP	44	96	1
TAP	44	192	0
TAP	44	288	0
TAP	45	0	7
TAP	45	96	7
TAP	45	192	0
TAP	45	192	7
TAP	46	0	6
TAP	46	0	7
TAP	46	192	0
TAP	46	192	1
TAP	47	0	6
TAP	47	0	7
TAP	47	96	6
TAP	47	96	7
TAP	47	192	6
TAP	47	192	7
TAP	48	0	5
TAP	48	96	5
TAP	48	192	4
TAP	48	288	4
TAP	49	0	3
TAP	49	96	3
TAP	49	192	3
TAP	49	192	4
STR	50	0	3
SI_	50	0	3	96	288	0
STR	52	0	7
SI_	52	0	7	96	288	4
TAP	54	0	3
TAP	54	192	3
TAP	55	0	3
TAP	55	96	3
TAP	55	192	3
TAP	56	0	4
TAP	56	192	4
TAP	57	0	4
TAP	57	96	4
TAP	57	192	4
TAP	58	0	3
TAP	58	192	3
TAP	59	0	2
TAP	59	0	4
TAP	59	96	2
TAP	59	96	4
TAP	59	192	2
TAP	59	192	4
TAP	60	0	4
TAP	60	192	4
TAP	61	0	3
TAP	61	0	5
TAP	61	96	3
TAP	61	96	5
TAP	61	192	3
TAP	61	192	5
HLD	62	0	6	192
TAP	63	0	7
TAP	63	96	7
TAP	63	192	7
HLD	64	0	0	384
BRK	65	192	0
TAP	66	0	0
TAP	67	0	0
TAP	68	0	7
TAP	69	0	7
TAP	69	96	7
BRK	69	192	0
BRK	69	192	7
TAP	70	0	0
TAP	70	0	1
TAP	70	192	6
TAP	70	192	7
TAP	71	0	0
TAP	71	0	1
TAP	71	96	0
TAP	71	96	1
TAP	71	192	0
TAP	71	192	1
TAP	72	0	2
TAP	72	96	2
TAP	72	192	3
TAP	72	288	3
TAP	73	0	4
TAP	73	96	4
TAP	73	192	3
TAP	73	192	4
TAP	74	0	3
TAP	74	96	3
TAP	74	192	3
TAP	75	0	2
TAP	75	96	2
TAP	75	192	2
TAP	75	192	3
STR	76	0	1
SI_	76	0	1	96	288	5
TAP	78	0	6
TAP	78	0	7
TAP	78	192	0
TAP	78	192	1
TAP	79	0	6
TAP	79	0	7
TAP	79	96	6
TAP	79	96	7
TAP	79	192	6
TAP	79	192	7
TAP	80	0	0
TAP	80	96	0
TAP	80	192	1
TAP	80	288	1
TAP	81	0	2
TAP	81	0	3
TAP	81	96	2
TAP	81	96	3
TAP	81	192	2
TAP	81	192	3

T_REC_TAP	223
T_REC_BRK	4
T_REC_XTP	0
T_REC_HLD	9
T_REC_XHO	0
T_REC_STR	3
T_REC_BST	0
T_REC_XST	0
T_REC_TTP	0
T_REC_THO	0
T_REC_SLD	3
T_REC_ALL	242
T_NUM_TAP	226
T_NUM_BRK	4
T_NUM_HLD	9
T_NUM_SLD	3
T_NUM_ALL	242
T_JUDGE_TAP	230
T_JUDGE_HLD	40
T_JUDGE_SLD	3
T_JUDGE_ALL	273
TTM_EACHPAIRS	52
TTM_SCR_TAP	113000
TTM_SCR_BRK	10400
TTM_SCR_HLD	9000
TTM_SCR_SLD	4500
TTM_SCR_ALL	136900
TTM_SCR_S	132450
TTM_SCR_SS	136500
TTM_RAT_ACV	10029

