VERSION	0.00.00	1.03.00
FES_MODE	0
BPM_DEF	150.000	150.000	150.000	150.000
MET_DEF	4	4
RESOLUTION	384
CLK_DEF	384
COMPATIBLE_CODE	MA2

BPM	0	0	150.000
MET	0	0	4	4

TAP	1	288	3
TAP	1	288	4
TAP	2	0	2
TAP	2	0	5
TAP	2	48	1
TAP	2	72	3
TAP	2	96	1
HLD	2	144	1	96
TAP	2	240	0
TAP	2	288	7
TAP	2	336	6
TAP	3	0	2
TAP	3	0	5
TAP	3	48	6
TAP	3	72	4
TAP	3	96	6
HLD	3	144	6	96
TAP	3	240	7
TAP	3	288	0
TAP	3	336	1
TAP	4	0	2
TAP	4	0	5
TAP	4	48	1
TAP	4	72	0
TAP	4	96	1
HLD	4	144	1	96
TAP	4	240	3
TAP	4	288	4
TAP	4	336	5
TAP	5	0	1
HLD	5	0	6	96
TAP	5	96	5
HLD	5	144	1	96
TAP	5	144	6
TAP	5	240	2
TAP	5	288	3
TAP	5	336	4
TAP	6	0	0
TAP	6	0	5
STR	6	48	6
SCL	6	48	6	96	48	3
TAP	6	72	7
TAP	6	96	6
HLD	6	144	6	96
TAP	6	240	2
TAP	6	288	1
TAP	6	336	0
TAP	7	0	2
TAP	7	0	7
STR	7	48	1
SCR	7	48	1	96	48	4
TAP	7	72	0
TAP	7	96	1
HLD	7	144	1	96
TAP	7	240	5
TAP	7	288	6
TAP	7	336	7
TAP	8	0	1
TAP	8	0	6
TAP	8	48	3
TAP	8	72	4
TAP	8	96	3
HLD	8	144	2	144
HLD	8	144	5	144
STR	9	0	1
SCR	9	0	1	96	48	4
TAP	9	0	6
TAP	9	96	5
STR	9	144	6
SCL	9	144	6	96	48	3
TAP	9	240	1
STR	9	288	0
SI_	9	288	0	96	48	4
STR	10	0	6
SCL	10	0	6	96	48	3
TAP	10	96	2
STR	10	144	1
SCR	10	144	1	96	48	4
TAP	10	240	6
STR	10	288	7
SI_	10	288	7	96	48	3
STR	11	0	1
SCR	11	0	1	96	48	4
TAP	11	96	5
STR	11	144	6
SCL	11	144	6	96	48	3
TAP	11	240	1
STR	11	288	0
SI_	11	288	0	96	48	4
HLD	12	0	5	144
TAP	12	144	7
TAP	12	168	6
TAP	12	192	7
TAP	12	240	0
TAP	12	288	1
TAP	12	336	2
TAP	13	0	1
STR	13	0	7
SCL	13	0	7	96	144	2
TAP	13	96	2
STR	13	144	2
SUR	13	144	2	96	96	7
TAP	13	240	0
TAP	13	288	0
STR	14	0	0
SCR	14	0	0	96	144	5
TAP	14	0	6
TAP	14	96	5
STR	14	144	5
SUL	14	144	5	96	96	0
TAP	14	240	7
TAP	14	288	7
TAP	15	0	1
STR	15	0	7
SCL	15	0	7	96	144	2
TAP	15	96	2
STR	15	144	2
SUR	15	144	2	96	96	7
TAP	15	240	0
TAP	15	288	0
HLD	16	0	0	96
TAP	16	0	6
TAP	16	96	7
TAP	16	144	3
TAP	16	168	4
TAP	16	192	2
TAP	16	216	5
TAP	16	240	1
TAP	16	264	6
HLD	16	288	0	96
HLD	17	0	7	96
TAP	17	96	0
TAP	17	144	1
TAP	17	168	0
TAP	17	192	1
TAP	17	240	7
TAP	17	264	0
TAP	17	288	7
TAP	17	336	2
TAP	17	360	0
TAP	18	0	2
TAP	18	48	6
TAP	18	72	0
TAP	18	96	6
TAP	18	144	3
TAP	18	168	0
TAP	18	192	2
TAP	18	216	0
TAP	18	240	1
TAP	18	288	2
TAP	18	288	7
HLD	19	0	0	96
TAP	19	0	5
TAP	19	96	7
TAP	19	144	6
TAP	19	168	7
TAP	19	192	6
TAP	19	240	0
TAP	19	264	7
TAP	19	288	0
TAP	19	336	5
TAP	19	360	7
TAP	20	0	5
TAP	20	48	1
TAP	20	72	7
TAP	20	96	1
TAP	20	144	4
TAP	20	168	7
TAP	20	192	5
TAP	20	216	7
TAP	20	240	6
TAP	20	288	0
TAP	20	288	5
TAP	21	0	2
HLD	21	0	7	96
TAP	21	96	0
TAP	21	144	1
TAP	21	168	0
TAP	21	192	1
TAP	21	240	7
TAP	21	264	0
TAP	21	288	7
TAP	21	336	2
TAP	21	360	0
TAP	22	0	2
TAP	22	48	6
TAP	22	72	0
TAP	22	96	6
TAP	22	144	3
TAP	22	168	0
TAP	22	192	2
TAP	22	216	0
TAP	22	240	1
TAP	22	288	2
TAP	22	288	7
HLD	23	0	0	96
TAP	23	0	5
TAP	23	96	7
TAP	23	144	6
TAP	23	168	7
TAP	23	192	6
TAP	23	240	0
TAP	23	264	7
TAP	23	288	0
TAP	23	336	5
TAP	23	360	7
HLD	24	0	5	96
TAP	24	96	3
TAP	24	120	4
TAP	24	144	2
TAP	24	168	5
TAP	24	192	0
TAP	24	216	7
TAP	24	240	0
BRK	24	288	1
BRK	24	288	6
TAP	25	0	3
TAP	25	0	4
STR	25	48	1
SCR	25	48	1	96	48	4
TAP	25	72	0
TAP	25	96	1
HLD	25	144	1	96
HLD	25	240	6	144
TAP	25	288	7
TAP	25	336	0
TAP	26	0	1
STR	26	48	2
SCL	26	48	2	96	144	4
TAP	26	96	4
TAP	26	144	2
HLD	26	144	3	144
TAP	27	0	6
HLD	27	0	7	96
TAP	27	48	5
TAP	27	96	4
TAP	27	144	2
HLD	27	144	3	96
TAP	27	192	1
TAP	27	240	0
TAP	27	288	6
STR	27	288	7
SCR	27	288	7	96	192	6
TAP	27	336	5
HLD	28	0	4	192
TAP	28	288	2
TAP	28	288	7
TAP	29	0	3
TAP	29	0	4
STR	29	48	6
SCL	29	48	6	96	48	3
TAP	29	72	7
TAP	29	96	6
HLD	29	144	6	96
HLD	29	240	1	144
TAP	29	288	0
TAP	29	336	7
TAP	30	0	6
STR	30	48	5
SCR	30	48	5	96	144	3
TAP	30	96	3
HLD	30	144	4	144
TAP	30	144	5
TAP	31	0	0
TAP	31	0	1
TAP	31	48	4
TAP	31	72	3
TAP	31	96	4
HLD	31	144	2	96
HLD	31	144	5	96
TAP	31	288	0
TAP	31	288	7
TAP	32	0	1
HLD	32	0	6	96
TAP	32	96	2
TAP	32	120	5
TAP	32	144	3
TAP	32	168	4
TAP	32	192	0
BRK	32	288	1
BRK	32	288	6
TAP	33	0	0
TAP	33	0	5
STR	33	48	6
SCL	33	48	6	96	48	3
TAP	33	72	7
TAP	33	96	6
HLD	33	144	6	96
HLD	33	240	1	96
TAP	33	288	0
TAP	33	336	7
HLD	34	0	6	96
STR	34	48	5
SCR	34	48	5	96	144	3
TAP	34	96	3
HLD	34	144	4	144
TAP	34	144	5
HLD	35	0	0	96
TAP	35	0	1
TAP	35	48	2
TAP	35	96	3
HLD	35	144	4	96
TAP	35	144	5
TAP	35	192	6
TAP	35	240	7
STR	35	288	0
SCL	35	288	0	96	192	1
TAP	35	288	1
TAP	35	336	2
HLD	36	0	3	192
TAP	36	288	0
TAP	36	288	5
TAP	37	0	2
TAP	37	0	7
STR	37	48	1
SCR	37	48	1	96	48	4
TAP	37	72	0
TAP	37	96	1
HLD	37	144	1	96
HLD	37	240	6	96
TAP	37	288	7
TAP	37	336	0
HLD	38	0	1	96
STR	38	48	2
SCL	38	48	2	96	144	4
TAP	38	96	4
TAP	38	144	2
HLD	38	144	3	144
TAP	39	0	6
TAP	39	0	7
TAP	39	48	3
TAP	39	72	4
TAP	39	96	3
HLD	39	144	2	96
HLD	39	144	5	96
TAP	39	288	0
TAP	39	288	7
TAP	40	0	1
HLD	40	0	6	96
TAP	40	96	7
TAP	40	108	0
TAP	40	120	1
TAP	40	132	2
TAP	40	144	3
TAP	40	156	4
TAP	40	168	5
TAP	40	180	6
HLD	40	192	7	96
BRK	40	288	0
TAP	41	0	3
HLD	41	0	5	96
TAP	41	48	4
HLD	41	96	3	96
TAP	41	144	4
HLD	41	192	5	96
TAP	41	240	4
HLD	41	288	2	96
TAP	41	336	3
HLD	42	0	4	96
TAP	42	48	3
HLD	42	96	1	96
TAP	42	144	2
HLD	42	192	3	96
TAP	42	240	2
HLD	42	288	1	96
TAP	42	336	0
HLD	43	0	7	96
TAP	43	48	0
HLD	43	96	1	96
TAP	43	144	0
HLD	43	192	6	96
TAP	43	240	7
HLD	43	288	0	96
TAP	43	336	7
HLD	44	0	5	96
TAP	44	48	6
HLD	44	96	7	96
TAP	44	144	6
HLD	44	192	4	48
TAP	44	240	3
BRK	44	288	2
BRK	44	288	5
TAP	45	0	3
TAP	45	0	4
TAP	45	48	4
TAP	45	96	4
TAP	45	96	5
TAP	45	144	5
TAP	45	192	5
TAP	45	192	6
TAP	45	240	6
TAP	45	288	6
TAP	45	288	7
TAP	45	336	7
TAP	46	0	0
TAP	46	0	7
TAP	46	48	0
TAP	46	96	0
TAP	46	96	1
TAP	46	144	1
TAP	46	192	1
TAP	46	192	2
TAP	46	240	2
TAP	46	288	2
TAP	46	288	3
TAP	46	336	3
TAP	47	0	3
TAP	47	0	4
TAP	47	24	5
TAP	47	48	2
TAP	47	72	6
TAP	47	96	1
TAP	47	120	7
TAP	47	144	0
TAP	47	168	7
TAP	47	192	1
TAP	47	216	6
TAP	47	240	2
TAP	47	264	5
TAP	47	288	3
TAP	47	304	4
TAP	47	320	3
TAP	47	336	4
TAP	47	352	3
TAP	47	368	4
STR	48	0	2
SXL	48	0	2	96	144	7
STR	48	0	5
SXR	48	0	5	96	144	0
BRK	48	288	1
BRK	48	288	6
STR	49	0	0
SI_	49	0	0	96	48	3
SI_	49	0	0	96	48	5
TAP	49	0	7
HLD	49	192	3	24
HLD	49	192	4	24
HLD	49	240	4	24
HLD	49	240	5	24
HLD	49	288	3	24
HLD	49	288	4	24
HLD	49	336	2	24
HLD	49	336	3	24
HLD	50	0	3	24
HLD	50	0	6	24
HLD	50	48	0	24
HLD	50	48	4	24
HLD	50	96	5	24
HLD	50	96	7	24
HLD	50	144	1	24
HLD	50	144	3	24
TAP	50	192	0
STR	50	192	7
SI_	50	192	7	96	48	4
SI_	50	192	7	96	48	5
STR	50	288	7
SI_	50	288	7	96	48	1
SI_	50	288	7	96	48	2
HLD	51	96	0	24
HLD	51	96	7	24
HLD	51	144	6	24
HLD	51	144	7	24
HLD	51	192	0	24
HLD	51	192	7	24
HLD	51	240	0	24
HLD	51	240	1	24
HLD	51	288	3	24
HLD	51	288	5	24
HLD	51	336	0	24
HLD	51	336	2	24
HLD	52	0	3	24
HLD	52	0	7	24
HLD	52	48	0	24
HLD	52	48	5	24
HLD	52	96	4	24
HLD	52	96	6	24
HLD	52	144	1	24
HLD	52	144	3	24
STR	52	192	0
SI_	52	192	0	96	48	5
SI_	52	192	0	96	48	6
TAP	52	192	7
STR	52	288	0
SI_	52	288	0	96	48	2
SI_	52	288	0	96	48	3
STR	53	0	0
SI_	53	0	0	96	48	4
SSL	53	0	0	96	48	4
HLD	53	192	5	24
HLD	53	192	7	24
HLD	53	240	1	24
HLD	53	240	6	24
HLD	53	288	0	24
HLD	53	288	2	24
HLD	53	336	3	24
HLD	53	336	5	24
HLD	54	0	0	24
HLD	54	0	3	24
HLD	54	48	6	24
HLD	54	48	7	24
HLD	54	96	1	24
HLD	54	96	2	24
HLD	54	144	3	24
HLD	54	144	5	24
TAP	54	192	0
STR	54	192	7
SI_	54	192	7	96	48	1
SI_	54	192	7	96	48	2
STR	54	288	7
SI_	54	288	7	96	48	4
SI_	54	288	7	96	48	5
HLD	55	96	1	24
HLD	55	96	3	24
HLD	55	144	4	24
HLD	55	144	7	24
HLD	55	192	2	24
HLD	55	192	6	24
HLD	55	240	0	24
HLD	55	240	1	24
HLD	55	288	3	24
HLD	55	288	5	24
HLD	55	336	5	24
HLD	55	336	7	24
HLD	56	0	1	24
HLD	56	0	4	24
HLD	56	48	3	24
HLD	56	48	7	24
BRK	56	96	1
BRK	56	96	6
STR	56	192	3
SCL	56	192	3	96	48	0
STR	56	192	7
SCL	56	192	7	96	48	4
STR	56	288	3
SUR	56	288	3	96	48	7
STR	56	288	7
SUR	56	288	7	96	48	3
STR	57	0	3
SCL	57	0	3	96	48	0
STR	57	0	7
SCL	57	0	7	96	48	4
TAP	57	192	0
TAP	57	216	7
TAP	57	240	0
TAP	57	264	7
TAP	57	288	0
TAP	57	312	5
TAP	57	336	4
TAP	57	360	5
TAP	58	0	0
TAP	58	24	4
TAP	58	48	3
TAP	58	72	4
TAP	58	96	0
TAP	58	120	3
TAP	58	144	2
TAP	58	168	3
STR	58	192	0
SCR	58	192	0	96	48	3
STR	58	192	4
SCR	58	192	4	96	48	7
STR	58	288	0
SI_	58	288	0	96	48	5
STR	58	288	4
SI_	58	288	4	96	48	1
TAP	59	96	0
TAP	59	112	1
TAP	59	128	2
TAP	59	144	6
TAP	59	160	5
TAP	59	176	4
HLD	59	192	7	48
TAP	59	240	6
TAP	59	264	5
TAP	59	264	7
TAP	59	312	1
TAP	59	336	0
TAP	59	336	2
TAP	60	0	1
TAP	60	24	3
TAP	60	48	2
TAP	60	72	4
TAP	60	96	3
TAP	60	120	5
TAP	60	144	4
TAP	60	168	6
STR	60	192	3
SCL	60	192	3	96	48	0
STR	60	192	7
SCL	60	192	7	96	48	4
STR	60	288	3
SI_	60	288	3	96	48	6
STR	60	288	7
SI_	60	288	7	96	48	2
STR	61	0	3
SI_	61	0	3	96	48	7
STR	61	0	7
SI_	61	0	7	96	48	3
TAP	61	192	1
TAP	61	192	5
TAP	61	240	2
TAP	61	264	1
TAP	61	264	3
TAP	61	312	5
TAP	61	336	4
TAP	61	336	6
TAP	62	0	1
TAP	62	24	0
TAP	62	24	2
TAP	62	72	6
TAP	62	96	5
TAP	62	96	7
TAP	62	144	1
TAP	62	144	3
STR	62	192	0
SCR	62	192	0	96	48	3
STR	62	192	4
SCR	62	192	4	96	48	7
STR	62	288	0
SF_	62	288	0	96	48	4
TAP	62	288	4
TAP	63	96	2
TAP	63	96	6
TAP	63	120	1
TAP	63	120	5
TAP	63	144	0
TAP	63	144	4
TAP	63	168	3
TAP	63	168	7
HLD	63	192	2	48
HLD	63	192	6	48
HLD	63	264	0	48
HLD	63	264	4	48
BRK	63	336	3
BRK	63	336	7
HLD	64	0	1	96
TAP	64	0	6
TAP	64	96	0
TAP	64	108	7
TAP	64	120	6
TAP	64	132	5
TAP	64	144	4
TAP	64	156	3
TAP	64	168	2
TAP	64	180	1
HLD	64	192	0	96
BRK	64	288	7
TAP	65	0	0
TAP	65	0	5
STR	65	48	6
SCL	65	48	6	96	48	3
TAP	65	64	7
TAP	65	80	6
TAP	65	96	7
HLD	65	144	6	96
STR	65	240	2
SCR	65	240	2	96	48	5
TAP	65	288	1
TAP	65	336	0
STR	66	0	7
SCR	66	0	7	96	48	2
TAP	66	48	6
TAP	66	96	5
HLD	66	144	4	144
TAP	66	192	5
TAP	66	208	6
TAP	66	224	7
TAP	66	240	0
TAP	66	256	1
TAP	66	272	2
TAP	66	288	3
HLD	67	0	0	96
TAP	67	0	1
TAP	67	48	2
TAP	67	96	3
HLD	67	144	4	96
TAP	67	144	5
TAP	67	192	6
TAP	67	240	7
STR	67	288	0
SCL	67	288	0	96	192	1
TAP	67	288	1
TAP	67	336	2
TAP	68	0	0
HLD	68	0	7	192
TAP	68	288	3
TAP	68	288	6
TAP	69	0	2
TAP	69	0	7
STR	69	48	1
SCR	69	48	1	96	48	4
TAP	69	64	0
TAP	69	80	1
TAP	69	96	0
HLD	69	144	1	96
STR	69	240	5
SCL	69	240	5	96	48	2
TAP	69	288	6
TAP	69	336	7
STR	70	0	0
SCL	70	0	0	96	48	5
TAP	70	48	1
TAP	70	96	2
HLD	70	144	3	144
TAP	70	192	2
TAP	70	208	1
TAP	70	224	0
TAP	70	240	7
TAP	70	256	6
TAP	70	272	5
TAP	70	288	4
TAP	71	0	0
TAP	71	0	7
TAP	71	48	3
TAP	71	64	4
TAP	71	80	3
TAP	71	96	4
HLD	71	144	1	96
HLD	71	144	6	96
TAP	71	288	3
TAP	71	288	7
TAP	72	0	2
HLD	72	0	5	96
TAP	72	96	4
TAP	72	108	3
TAP	72	120	2
TAP	72	132	1
TAP	72	144	0
TAP	72	156	7
TAP	72	168	6
TAP	72	180	5
HLD	72	192	4	96
BRK	72	288	0
STR	73	0	0
SI_	73	0	0	96	48	4
TAP	73	0	7
TAP	73	48	1
TAP	73	96	0
STR	73	96	6
SI_	73	96	6	96	48	3
TAP	73	144	7
STR	73	192	1
SCR	73	192	1	96	48	4
TAP	73	192	6
TAP	73	240	0
TAP	73	264	0
TAP	73	288	1
STR	73	288	7
SI_	73	288	7	96	48	3
TAP	73	336	6
STR	74	0	1
SI_	74	0	1	96	48	6
TAP	74	0	7
TAP	74	48	0
TAP	74	72	0
STR	74	96	1
SCR	74	96	1	96	48	4
STR	74	96	5
SCR	74	96	5	96	48	0
TAP	74	144	4
TAP	74	192	1
TAP	74	192	5
TAP	74	288	2
TAP	74	288	6
STR	75	0	2
SI_	75	0	2	96	48	7
TAP	75	0	4
TAP	75	48	3
TAP	75	96	2
STR	75	96	5
SI_	75	96	5	96	48	0
TAP	75	144	4
STR	75	192	3
SI_	75	192	3	96	48	7
TAP	75	192	5
TAP	75	240	2
TAP	75	288	3
STR	75	288	4
SI_	75	288	4	96	48	0
TAP	75	336	5
TAP	76	0	3
TAP	76	0	4
TAP	76	48	1
TAP	76	64	2
TAP	76	80	3
TAP	76	96	4
TAP	76	144	0
TAP	76	144	7
TAP	76	192	6
TAP	76	208	5
TAP	76	224	4
TAP	76	240	3
BRK	76	288	1
BRK	76	288	6
TAP	77	0	0
STR	77	0	7
SI_	77	0	7	96	48	3
TAP	77	48	6
STR	77	96	1
SI_	77	96	1	96	48	4
TAP	77	96	7
TAP	77	144	0
TAP	77	192	1
STR	77	192	6
SCL	77	192	6	96	48	3
TAP	77	240	7
TAP	77	264	7
STR	77	288	0
SI_	77	288	0	96	48	4
TAP	77	288	6
TAP	77	336	1
TAP	78	0	0
STR	78	0	6
SI_	78	0	6	96	48	1
TAP	78	48	7
TAP	78	72	7
STR	78	96	2
SCL	78	96	2	96	48	7
STR	78	96	6
SCL	78	96	6	96	48	3
TAP	78	144	3
TAP	78	192	2
TAP	78	192	6
TAP	78	288	1
TAP	78	288	5
TAP	79	0	3
TAP	79	0	4
TAP	79	48	0
TAP	79	48	7
TAP	79	64	1
TAP	79	64	6
TAP	79	80	2
TAP	79	80	5
TAP	79	96	3
TAP	79	96	4
TAP	79	144	1
TAP	79	144	6
TAP	79	192	3
TAP	79	208	4
TAP	79	224	3
TAP	79	240	4
TAP	79	256	3
TAP	79	272	4
TAP	79	288	1
TAP	79	304	6
TAP	79	320	1
TAP	79	336	6
TAP	79	352	1
TAP	79	368	6
STR	80	0	0
SCL	80	0	0	96	48	5
SCR	80	0	0	96	48	3
TAP	80	0	7
STR	80	96	0
SF_	80	96	0	96	48	4
BRK	80	192	0

T_REC_TAP	518
T_REC_BRK	18
T_REC_XTP	0
T_REC_HLD	145
T_REC_XHO	0
T_REC_STR	83
T_REC_BST	0
T_REC_XST	0
T_REC_TTP	0
T_REC_THO	0
T_REC_SLD	92
T_REC_ALL	856
T_NUM_TAP	601
T_NUM_BRK	18
T_NUM_HLD	145
T_NUM_SLD	92
T_NUM_ALL	856
T_JUDGE_TAP	619
T_JUDGE_HLD	233
T_JUDGE_SLD	92
T_JUDGE_ALL	944
TTM_EACHPAIRS	166
TTM_SCR_TAP	300500
TTM_SCR_BRK	46800
TTM_SCR_HLD	145000
TTM_SCR_SLD	138000
TTM_SCR_ALL	630300
TTM_SCR_S	609650
TTM_SCR_SS	628500
TTM_RAT_ACV	10028

