VERSION	0.00.00	1.03.00
FES_MODE	0
BPM_DEF	150.000	150.000	150.000	150.000
MET_DEF	4	4
RESOLUTION	384
CLK_DEF	384
COMPATIBLE_CODE	MA2

BPM	0	0	150.000
MET	0	0	4	4

STR	1	288	2
SCL	1	288	2	96	192	5
HLD	2	0	4	192
STR	2	288	5
SCR	2	288	5	96	192	2
HLD	3	0	3	192
TAP	3	288	1
TAP	3	288	4
TAP	4	0	3
TAP	4	0	5
TAP	4	48	4
TAP	4	96	4
TAP	4	144	3
TAP	4	144	5
TAP	4	240	3
TAP	4	288	2
TAP	4	288	4
TAP	5	0	2
TAP	5	0	4
TAP	5	48	3
TAP	5	96	3
TAP	5	144	2
TAP	5	144	4
TAP	5	240	4
TAP	5	288	3
STR	5	288	5
SCR	5	288	5	96	192	2
HLD	6	0	4	192
STR	6	288	2
SCL	6	288	2	96	192	5
HLD	7	0	3	192
TAP	7	288	1
TAP	7	288	5
TAP	8	0	0
STR	8	48	0
SCR	8	48	0	96	144	5
TAP	8	96	7
TAP	8	144	7
HLD	9	0	6	96
HLD	9	0	7	96
TAP	9	144	6
TAP	9	144	7
TAP	9	240	4
TAP	9	240	5
TAP	9	288	4
TAP	9	288	5
HLD	10	0	2	240
TAP	10	0	6
TAP	10	48	5
TAP	10	96	4
HLD	10	144	3	96
TAP	10	288	2
TAP	10	288	3
HLD	11	0	6	96
HLD	11	0	7	96
TAP	11	144	6
TAP	11	144	7
TAP	11	240	0
TAP	11	240	5
TAP	11	288	0
TAP	11	288	5
HLD	12	0	1	240
TAP	12	0	5
TAP	12	48	4
TAP	12	96	3
HLD	12	144	2	96
TAP	12	288	1
TAP	12	288	2
HLD	13	0	0	96
HLD	13	0	1	96
TAP	13	144	0
TAP	13	144	1
TAP	13	240	2
TAP	13	240	7
TAP	13	288	2
TAP	13	288	7
TAP	14	0	2
HLD	14	0	6	240
TAP	14	48	3
TAP	14	96	4
HLD	14	144	5	96
TAP	14	288	5
TAP	14	288	6
HLD	15	0	6	96
HLD	15	0	7	96
HLD	15	144	0	96
HLD	15	144	1	96
TAP	15	288	0
TAP	15	288	1
TAP	16	0	2
TAP	16	0	5
TAP	16	48	3
TAP	16	96	4
TAP	16	144	2
TAP	16	144	5
TAP	16	240	0
TAP	16	240	7
BRK	16	288	0
BRK	16	288	7
STR	17	0	1
SCR	17	0	1	96	48	3
TAP	17	0	4
TAP	17	96	4
TAP	17	192	4
STR	17	192	7
SCL	17	192	7	96	48	5
TAP	17	288	4
STR	18	0	1
SCR	18	0	1	96	48	3
TAP	18	0	4
TAP	18	96	4
TAP	18	192	4
TAP	18	192	6
TAP	18	288	0
TAP	18	288	7
TAP	19	0	3
STR	19	0	6
SCL	19	0	6	96	48	4
TAP	19	96	3
STR	19	192	0
SCR	19	192	0	96	48	2
TAP	19	192	3
TAP	19	288	3
TAP	20	0	3
STR	20	0	6
SCL	20	0	6	96	48	4
TAP	20	96	3
TAP	20	192	1
TAP	20	192	3
TAP	20	288	6
TAP	20	288	7
TAP	21	0	0
STR	21	0	5
SCR	21	0	5	96	48	7
TAP	21	96	0
TAP	21	192	0
STR	21	192	3
SCL	21	192	3	96	48	1
TAP	21	288	0
TAP	22	0	0
STR	22	0	5
SCR	22	0	5	96	48	7
TAP	22	96	0
TAP	22	192	0
TAP	22	192	2
TAP	22	288	1
TAP	22	288	6
HLD	23	0	2	96
TAP	23	0	3
TAP	23	96	0
TAP	23	192	4
HLD	23	192	5	96
TAP	23	288	7
STR	24	0	0
SUR	24	0	0	96	48	4
STR	24	96	7
SUL	24	96	7	96	48	3
TAP	24	192	0
BST	24	288	1
SCR	24	288	1	96	192	7
BRK	24	288	5
TAP	25	288	2
TAP	25	288	6
TAP	26	0	1
TAP	26	0	3
TAP	26	48	2
TAP	26	96	3
TAP	26	144	2
TAP	26	144	4
TAP	26	192	3
TAP	26	240	4
TAP	26	288	3
TAP	26	288	5
TAP	27	0	0
TAP	27	0	6
TAP	27	48	1
TAP	27	96	2
TAP	27	144	0
TAP	27	144	3
TAP	27	192	7
TAP	27	240	6
TAP	27	288	2
STR	27	288	5
SCR	27	288	5	96	192	2
TAP	27	336	4
HLD	28	0	3	192
TAP	28	288	0
TAP	28	288	1
TAP	29	0	4
TAP	29	0	6
TAP	29	48	5
TAP	29	96	5
TAP	29	144	4
STR	29	144	6
SCL	29	144	6	96	48	3
TAP	29	240	7
TAP	29	288	7
TAP	30	0	1
TAP	30	0	3
TAP	30	48	2
TAP	30	96	2
STR	30	144	1
SCR	30	144	1	96	48	4
TAP	30	144	3
TAP	30	240	0
TAP	30	288	0
TAP	31	0	4
TAP	31	0	6
TAP	31	48	5
TAP	31	96	4
HLD	31	144	1	96
TAP	31	144	3
TAP	31	240	0
TAP	31	288	0
STR	32	0	0
SV_	32	0	0	96	96	2
STR	32	0	7
SV_	32	0	7	96	96	5
TAP	32	288	1
STR	32	288	6
SCL	32	288	6	96	192	0
TAP	33	288	1
TAP	33	288	5
TAP	34	0	4
TAP	34	0	6
TAP	34	48	5
TAP	34	96	4
TAP	34	144	3
TAP	34	144	5
TAP	34	192	4
TAP	34	240	3
TAP	34	288	2
TAP	34	288	4
TAP	35	0	1
TAP	35	0	7
TAP	35	48	6
TAP	35	96	5
TAP	35	144	4
TAP	35	144	7
TAP	35	192	0
TAP	35	240	1
STR	35	288	2
SCL	35	288	2	96	192	5
TAP	35	288	5
TAP	35	336	3
HLD	36	0	4	192
TAP	36	288	6
TAP	36	288	7
TAP	37	0	1
TAP	37	0	3
TAP	37	48	1
TAP	37	48	3
TAP	37	96	2
STR	37	144	1
SUR	37	144	1	96	48	5
TAP	37	144	3
TAP	37	240	7
TAP	37	288	7
TAP	38	0	4
TAP	38	0	6
TAP	38	48	4
TAP	38	48	6
TAP	38	96	5
TAP	38	144	4
STR	38	144	6
SUL	38	144	6	96	48	2
TAP	38	240	0
TAP	38	288	0
TAP	39	0	1
TAP	39	0	3
TAP	39	48	2
TAP	39	96	3
TAP	39	144	4
HLD	39	144	6	96
TAP	39	240	7
STR	39	288	7
SXL	39	288	7	96	192	2
TAP	40	288	1
TAP	40	288	4
HLD	41	0	6	96
HLD	41	96	4	96
HLD	41	192	3	96
TAP	41	288	2
HLD	42	0	1	96
HLD	42	96	3	96
HLD	42	192	4	96
STR	42	288	5
SUL	42	288	5	96	192	3
STR	43	288	2
SUR	43	288	2	96	192	4
TAP	44	288	1
TAP	44	288	5
TAP	45	0	4
TAP	45	48	4
TAP	45	96	2
TAP	45	144	2
TAP	45	192	5
TAP	45	240	5
TAP	45	288	3
TAP	45	336	3
TAP	46	0	6
TAP	46	48	6
TAP	46	96	4
TAP	46	144	3
TAP	46	192	1
TAP	46	240	1
TAP	46	288	3
TAP	46	336	4
TAP	47	0	6
TAP	47	48	6
TAP	47	96	1
TAP	47	144	1
TAP	47	192	7
TAP	47	216	0
TAP	47	240	7
TAP	47	264	0
STR	47	288	7
SCL	47	288	7	96	144	2
TAP	47	312	0
TAP	47	336	7
TAP	47	360	0
BRK	48	288	0
BST	48	288	7
SV_	48	288	7	96	48	5
STR	49	0	3
SV_	49	0	3	96	48	1
HLD	49	192	0	96
HLD	49	288	2	96
TAP	50	0	3
TAP	50	96	3
TAP	50	96	4
STR	50	192	1
SV_	50	192	1	96	48	3
STR	50	192	5
SV_	50	192	5	96	48	7
TAP	51	0	2
HLD	51	0	6	480
TAP	51	96	4
TAP	51	192	7
TAP	51	288	5
TAP	52	0	0
TAP	52	96	4
STR	52	192	1
SI_	52	192	1	96	48	4
TAP	52	192	4
TAP	52	288	0
TAP	53	0	3
STR	53	0	6
SI_	53	0	6	96	48	3
TAP	53	96	7
HLD	53	192	1	96
HLD	53	288	3	96
HLD	54	0	2	96
TAP	54	96	0
STR	54	192	3
SI_	54	192	3	96	48	6
STR	54	192	4
SI_	54	192	4	96	48	1
TAP	55	0	0
TAP	55	0	7
TAP	55	96	2
TAP	55	96	5
HLD	55	192	3	48
HLD	55	192	6	48
HLD	55	264	2	48
HLD	55	264	5	48
TAP	55	336	1
TAP	55	336	4
TAP	56	48	6
TAP	56	48	7
STR	56	96	6
SI_	56	96	6	96	48	3
TAP	56	96	7
STR	56	192	2
SI_	56	192	2	96	48	7
STR	56	288	6
SCL	56	288	6	96	48	3
STR	57	0	2
SCL	57	0	2	96	48	7
TAP	57	96	6
TAP	57	192	6
HLD	57	288	4	192
TAP	57	288	5
TAP	58	0	5
TAP	58	96	3
STR	58	192	2
SCL	58	192	2	96	48	7
STR	58	192	6
SCL	58	192	6	96	48	3
TAP	59	0	1
TAP	59	0	5
TAP	59	96	3
TAP	59	96	4
HLD	59	192	5	144
TAP	59	288	7
TAP	59	336	7
TAP	60	48	1
TAP	60	48	3
STR	60	96	1
SI_	60	96	1	96	48	4
TAP	60	96	3
STR	60	192	5
SI_	60	192	5	96	48	0
STR	60	288	1
SCR	60	288	1	96	48	4
STR	61	0	5
SCR	61	0	5	96	48	0
TAP	61	96	1
HLD	61	192	1	48
HLD	61	192	3	48
HLD	61	264	2	48
HLD	61	264	4	48
HLD	61	336	3	48
HLD	61	336	5	48
HLD	62	24	4	48
HLD	62	24	6	48
TAP	62	96	4
TAP	62	96	6
STR	62	192	1
SCR	62	192	1	96	48	4
STR	62	192	5
SCR	62	192	5	96	48	0
TAP	63	0	3
TAP	63	0	7
TAP	63	48	6
TAP	63	96	5
TAP	63	144	4
TAP	63	192	0
TAP	63	192	3
TAP	63	240	1
TAP	63	288	2
TAP	63	336	3
TAP	64	0	4
STR	64	0	5
SCR	64	0	5	96	96	2
BRK	64	288	0
BRK	64	288	7
STR	65	0	1
SI_	65	0	1	96	48	5
TAP	65	96	0
STR	65	144	0
SUL	65	144	0	96	48	4
TAP	65	240	2
TAP	65	288	2
STR	66	0	6
SI_	66	0	6	96	48	2
TAP	66	96	7
STR	66	144	7
SUR	66	144	7	96	48	3
TAP	66	240	5
TAP	66	288	5
TAP	67	0	2
TAP	67	0	4
TAP	67	48	5
TAP	67	96	6
TAP	67	144	4
TAP	67	144	7
TAP	67	192	3
TAP	67	240	2
STR	67	288	1
SCR	67	288	1	96	192	6
TAP	67	336	0
HLD	68	0	7	192
TAP	68	288	1
TAP	68	288	5
STR	69	0	6
SI_	69	0	6	96	48	2
TAP	69	96	7
STR	69	144	7
SCR	69	144	7	96	48	2
TAP	69	240	4
TAP	69	288	4
STR	70	0	1
SI_	70	0	1	96	48	5
TAP	70	96	0
STR	70	144	0
SCL	70	144	0	96	48	5
TAP	70	240	3
TAP	70	288	3
TAP	71	0	4
TAP	71	0	6
TAP	71	48	5
TAP	71	96	4
TAP	71	144	1
TAP	71	144	3
TAP	71	192	2
TAP	71	240	3
TAP	71	288	4
TAP	71	288	5
STR	72	0	2
SCL	72	0	2	96	96	7
STR	72	0	3
SCR	72	0	3	96	96	6
BRK	72	288	0
BRK	72	288	5
STR	73	0	1
SCR	73	0	1	96	48	4
STR	73	96	0
SCL	73	96	0	96	48	5
STR	73	192	1
SCR	73	192	1	96	48	4
STR	73	288	7
SCL	73	288	7	96	48	4
STR	74	0	0
SUR	74	0	0	96	48	4
STR	74	96	7
SUL	74	96	7	96	48	3
TAP	74	192	0
TAP	74	288	1
TAP	74	288	6
HLD	75	0	3	48
HLD	75	0	4	48
HLD	75	96	4	48
HLD	75	96	6	48
HLD	75	192	3	48
HLD	75	192	4	48
HLD	75	288	1	48
HLD	75	288	3	48
HLD	76	0	3	48
HLD	76	0	4	48
HLD	76	96	5	48
HLD	76	96	6	48
HLD	76	192	3	48
HLD	76	192	4	48
TAP	76	288	2
TAP	76	288	5
STR	77	0	6
SCL	77	0	6	96	48	3
STR	77	96	7
SCR	77	96	7	96	48	2
STR	77	192	6
SCL	77	192	6	96	48	3
STR	77	288	0
SCR	77	288	0	96	48	3
STR	78	0	7
SUL	78	0	7	96	48	3
STR	78	96	0
SUR	78	96	0	96	48	4
TAP	78	192	7
TAP	78	288	1
TAP	78	288	6
HLD	79	0	4	48
HLD	79	0	6	48
HLD	79	96	3	48
HLD	79	96	4	48
HLD	79	192	1	48
HLD	79	192	3	48
TAP	79	288	0
TAP	79	288	7
STR	80	0	1
SI_	80	0	1	96	48	4
STR	80	0	6
SI_	80	0	6	96	48	3
BRK	80	192	2
BRK	80	192	6

T_REC_TAP	320
T_REC_BRK	10
T_REC_XTP	0
T_REC_HLD	73
T_REC_XHO	0
T_REC_STR	74
T_REC_BST	2
T_REC_XST	0
T_REC_TTP	0
T_REC_THO	0
T_REC_SLD	76
T_REC_ALL	555
T_NUM_TAP	394
T_NUM_BRK	12
T_NUM_HLD	73
T_NUM_SLD	76
T_NUM_ALL	555
T_JUDGE_TAP	406
T_JUDGE_HLD	148
T_JUDGE_SLD	76
T_JUDGE_ALL	630
TTM_EACHPAIRS	139
TTM_SCR_TAP	197000
TTM_SCR_BRK	31200
TTM_SCR_HLD	73000
TTM_SCR_SLD	114000
TTM_SCR_ALL	415200
TTM_SCR_S	401600
TTM_SCR_SS	414000
TTM_RAT_ACV	10028

