VERSION	0.00.00	1.03.00
FES_MODE	0
BPM_DEF	150.000	150.000	150.000	150.000
MET_DEF	4	4
RESOLUTION	384
CLK_DEF	384
COMPATIBLE_CODE	MA2

BPM	0	0	150.000
MET	0	0	4	4

STR	2	0	3
SCL	2	0	3	96	144	0
TAP	2	0	4
TAP	3	0	0
STR	3	0	7
SCL	3	0	7	96	144	4
STR	4	0	2
SCL	4	0	2	96	144	7
TAP	4	0	3
TAP	5	0	6
TAP	5	96	6
TAP	5	192	6
TAP	5	192	7
TAP	6	0	3
STR	6	0	4
SCR	6	0	4	96	144	7
STR	7	0	0
SCR	7	0	0	96	144	3
TAP	7	0	7
TAP	8	0	4
STR	8	0	5
SCR	8	0	5	96	192	2
TAP	9	0	3
TAP	9	96	3
TAP	9	192	4
TAP	9	288	3
TAP	9	288	5
TAP	10	0	6
TAP	10	96	6
TAP	10	192	6
TAP	10	192	7
TAP	11	0	4
TAP	11	96	4
TAP	11	192	3
TAP	11	288	2
TAP	11	288	4
TAP	12	0	1
TAP	12	96	1
TAP	12	192	0
TAP	12	192	1
TAP	13	0	2
TAP	13	96	3
TAP	13	192	2
TAP	13	192	4
TAP	13	288	5
TAP	14	0	6
TAP	14	96	7
TAP	14	192	6
TAP	14	192	7
TAP	15	0	5
TAP	15	96	4
TAP	15	192	3
TAP	15	192	5
TAP	15	288	2
TAP	16	0	1
TAP	16	96	0
TAP	16	96	1
TAP	16	192	2
TAP	16	192	7
HLD	17	0	2	288
TAP	17	96	3
TAP	17	192	3
TAP	17	288	3
HLD	18	0	4	192
TAP	18	96	3
TAP	18	192	3
TAP	18	288	3
TAP	18	288	4
HLD	19	0	5	288
TAP	19	96	4
TAP	19	192	4
TAP	19	288	4
HLD	20	0	2	96
HLD	20	0	3	96
TAP	20	192	1
TAP	20	192	4
TAP	20	288	1
TAP	20	288	4
HLD	21	0	6	288
TAP	21	96	7
TAP	21	192	7
TAP	21	288	7
HLD	22	0	0	192
TAP	22	96	7
TAP	22	192	7
TAP	22	288	1
TAP	22	288	6
TAP	23	0	1
TAP	23	96	0
TAP	23	96	1
TAP	23	192	6
TAP	23	288	6
TAP	23	288	7
TAP	24	0	0
TAP	24	0	7
TAP	24	96	1
TAP	24	96	6
BRK	24	192	2
BRK	24	192	5
HLD	25	0	5	192
TAP	25	96	3
TAP	25	192	4
HLD	26	0	2	192
TAP	26	96	4
TAP	26	192	3
HLD	27	0	6	192
TAP	27	96	4
TAP	27	192	5
HLD	28	0	1	192
TAP	28	96	3
TAP	28	192	2
HLD	29	0	6	192
TAP	29	96	0
TAP	29	192	7
HLD	30	0	1	192
TAP	30	96	7
TAP	30	192	0
HLD	31	0	2	96
HLD	31	96	3	96
HLD	31	192	4	96
TAP	31	288	5
TAP	32	0	4
TAP	32	0	5
TAP	32	96	3
TAP	32	96	4
TAP	32	192	2
TAP	32	192	5
HLD	33	0	1	96
HLD	33	0	3	96
TAP	33	192	2
TAP	33	288	2
TAP	34	0	3
TAP	34	96	4
TAP	34	192	2
TAP	34	192	5
TAP	35	0	7
TAP	35	96	6
TAP	35	192	5
TAP	35	288	4
TAP	36	0	2
TAP	36	0	3
TAP	36	96	1
TAP	36	96	4
TAP	36	192	0
TAP	36	192	5
HLD	37	0	4	96
HLD	37	0	6	96
TAP	37	192	5
TAP	37	288	5
TAP	38	0	4
TAP	38	96	3
TAP	38	192	2
TAP	38	192	5
HLD	39	0	0	96
HLD	39	0	1	96
HLD	39	192	6	96
HLD	39	192	7	96
HLD	40	0	3	96
HLD	40	0	4	96
TAP	40	192	3
TAP	40	192	4
STR	40	288	2
SLR	40	288	2	96	192	0
TAP	40	288	5
TAP	41	288	1
TAP	41	288	7
TAP	42	0	6
TAP	42	96	3
TAP	42	96	5
TAP	42	192	4
STR	42	288	3
SI_	42	288	3	96	96	7
TAP	43	288	6
STR	44	0	6
SI_	44	0	6	96	96	3
TAP	44	0	7
TAP	44	288	2
TAP	45	0	5
TAP	45	96	4
TAP	45	96	5
TAP	45	192	5
TAP	45	288	4
TAP	45	288	6
TAP	46	0	2
TAP	46	96	2
TAP	46	96	3
TAP	46	192	2
TAP	46	288	1
TAP	46	288	3
TAP	47	0	5
TAP	47	96	4
TAP	47	96	6
TAP	47	192	2
STR	47	288	1
SCL	47	288	1	96	192	4
TAP	47	288	3
TAP	48	288	3
TAP	48	288	4
TAP	49	0	4
TAP	49	0	5
TAP	49	96	1
TAP	49	96	3
HLD	49	192	1	96
TAP	49	288	0
HLD	50	0	6	96
TAP	50	96	7
TAP	50	192	4
TAP	50	192	5
TAP	50	288	1
TAP	50	288	3
TAP	51	0	2
TAP	51	0	5
TAP	51	96	3
TAP	51	96	4
TAP	51	192	5
TAP	51	288	4
TAP	51	288	5
TAP	52	0	2
TAP	52	96	2
TAP	52	96	3
TAP	52	192	1
TAP	52	192	4
TAP	53	0	2
TAP	53	0	3
TAP	53	96	4
TAP	53	96	6
HLD	53	192	6	96
TAP	53	288	7
HLD	54	0	1	96
TAP	54	96	0
TAP	54	192	2
TAP	54	192	3
TAP	54	288	4
TAP	54	288	6
TAP	55	0	3
TAP	55	0	4
TAP	55	96	2
TAP	55	96	5
STR	55	192	1
SLR	55	192	1	96	192	0
STR	55	192	6
SLL	55	192	6	96	192	7
BRK	56	192	1
BRK	56	192	6
TAP	57	0	4
TAP	57	0	5
TAP	57	96	1
TAP	57	96	3
HLD	57	192	0	96
HLD	57	288	1	96
HLD	58	0	2	96
TAP	58	96	3
TAP	58	192	4
TAP	58	192	5
TAP	58	288	6
TAP	58	288	7
TAP	59	0	0
TAP	59	0	5
TAP	59	96	1
TAP	59	96	6
TAP	59	192	2
TAP	59	192	3
TAP	59	288	4
TAP	59	288	5
TAP	60	0	1
TAP	60	0	3
TAP	60	96	0
TAP	60	192	1
TAP	60	192	7
TAP	60	288	2
TAP	60	288	6
TAP	61	0	3
TAP	61	0	4
STR	61	96	2
SLL	61	96	2	96	288	4
STR	61	96	5
SLR	61	96	5	96	288	3
TAP	62	192	2
TAP	62	192	5
TAP	62	288	1
TAP	62	288	6
TAP	63	0	2
TAP	63	96	1
TAP	63	96	3
TAP	63	192	5
TAP	63	288	4
TAP	63	288	6
TAP	64	0	3
TAP	64	96	2
TAP	64	96	4
BRK	64	192	1
BRK	64	192	5
TAP	65	0	6
STR	65	0	7
SCR	65	0	7	96	144	3
STR	66	0	0
SCL	66	0	0	96	144	4
TAP	66	0	1
STR	67	0	0
SCR	67	0	0	96	168	5
TAP	67	0	7
TAP	68	0	6
TAP	68	0	7
TAP	68	96	0
TAP	68	96	5
TAP	68	192	1
TAP	68	192	4
HLD	69	0	6	192
TAP	69	96	4
TAP	69	192	5
TAP	69	288	0
TAP	69	288	7
HLD	70	0	1	192
TAP	70	96	3
TAP	70	192	2
TAP	70	288	0
TAP	70	288	7
HLD	71	0	6	96
TAP	71	96	4
HLD	71	192	1	96
TAP	71	288	3
HLD	72	0	3	96
HLD	72	0	4	96
TAP	72	192	3
TAP	72	192	4
BRK	72	288	1
BRK	72	288	6
TAP	73	0	2
TAP	73	48	2
TAP	73	96	1
TAP	73	96	3
TAP	73	192	5
TAP	73	240	5
TAP	73	288	4
TAP	73	288	6
TAP	74	0	1
TAP	74	48	1
TAP	74	96	0
TAP	74	96	2
TAP	74	192	6
TAP	74	240	6
TAP	74	288	5
TAP	74	288	7
TAP	75	0	0
TAP	75	48	1
TAP	75	96	2
TAP	75	144	3
TAP	75	192	4
TAP	75	192	5
TAP	75	288	3
TAP	75	288	6
TAP	76	0	7
TAP	76	48	6
TAP	76	96	5
TAP	76	144	4
TAP	76	192	2
TAP	76	192	3
TAP	76	288	1
TAP	76	288	4
TAP	77	0	5
TAP	77	48	4
TAP	77	96	3
TAP	77	96	6
TAP	77	192	2
TAP	77	240	3
TAP	77	288	1
TAP	77	288	4
TAP	78	0	6
TAP	78	48	7
TAP	78	96	0
TAP	78	96	5
TAP	78	192	1
TAP	78	240	0
TAP	78	288	2
TAP	78	288	7
TAP	79	0	6
TAP	79	48	7
TAP	79	96	0
TAP	79	144	1
TAP	79	192	2
TAP	79	240	3
TAP	79	288	4
TAP	79	288	5
TAP	80	0	2
TAP	80	0	3
TAP	80	96	4
TAP	80	96	6
BRK	80	192	0
BRK	80	192	4

T_REC_TAP	306
T_REC_BRK	10
T_REC_XTP	0
T_REC_HLD	39
T_REC_XHO	0
T_REC_STR	17
T_REC_BST	0
T_REC_XST	0
T_REC_TTP	0
T_REC_THO	0
T_REC_SLD	17
T_REC_ALL	389
T_NUM_TAP	323
T_NUM_BRK	10
T_NUM_HLD	39
T_NUM_SLD	17
T_NUM_ALL	389
T_JUDGE_TAP	333
T_JUDGE_HLD	110
T_JUDGE_SLD	17
T_JUDGE_ALL	460
TTM_EACHPAIRS	114
TTM_SCR_TAP	161500
TTM_SCR_BRK	26000
TTM_SCR_HLD	39000
TTM_SCR_SLD	25500
TTM_SCR_ALL	252000
TTM_SCR_S	243500
TTM_SCR_SS	251000
TTM_RAT_ACV	10039

