VERSION	0.00.00	1.03.00
FES_MODE	0
BPM_DEF	150.000	150.000	150.000	150.000
MET_DEF	4	4
RESOLUTION	384
CLK_DEF	384
COMPATIBLE_CODE	MA2

BPM	0	0	150.000
MET	0	0	4	4

TAP	2	0	0
TAP	3	0	1
TAP	4	0	2
TAP	5	0	3
TAP	6	0	4
TAP	7	0	5
TAP	8	0	6
TAP	9	0	7
TAP	9	96	7
TAP	9	192	7
HLD	10	0	6	192
TAP	11	0	5
TAP	11	96	5
TAP	11	192	4
TAP	11	288	4
TAP	12	0	3
TAP	12	96	4
TAP	12	192	3
TAP	13	0	3
TAP	13	96	3
TAP	13	192	3
HLD	14	0	2	192
TAP	15	0	1
TAP	15	96	1
TAP	15	192	0
TAP	15	288	0
HLD	16	0	0	192
HLD	16	0	7	192
TAP	17	0	7
TAP	17	96	7
TAP	17	192	7
TAP	18	0	0
TAP	18	96	0
TAP	18	192	0
TAP	19	0	1
TAP	19	96	1
TAP	19	192	1
TAP	20	0	2
TAP	20	0	3
TAP	20	96	2
TAP	20	96	3
TAP	20	192	2
TAP	20	192	3
TAP	21	0	4
TAP	21	96	4
TAP	21	192	4
TAP	22	0	5
TAP	22	96	5
TAP	22	192	5
TAP	23	0	6
TAP	23	96	6
TAP	23	192	7
TAP	23	288	7
TAP	24	0	0
TAP	24	0	7
TAP	24	96	0
TAP	24	96	7
TAP	24	192	1
TAP	24	192	6
STR	25	0	2
SI_	25	0	2	96	288	6
TAP	27	0	7
TAP	27	96	7
TAP	27	192	7
TAP	28	0	0
TAP	28	96	0
TAP	28	192	0
STR	29	0	7
SI_	29	0	7	96	288	3
TAP	31	0	2
TAP	31	96	2
TAP	31	192	2
TAP	32	0	3
TAP	32	96	3
TAP	32	192	4
TAP	32	288	4
STR	33	0	5
SI_	33	0	5	96	288	1
TAP	35	0	0
TAP	35	96	0
TAP	35	192	0
TAP	36	0	7
TAP	36	96	7
TAP	36	192	7
STR	37	0	0
SI_	37	0	0	96	288	4
TAP	39	0	5
TAP	39	96	5
TAP	39	192	5
TAP	40	0	4
TAP	40	96	3
TAP	40	192	4
TAP	41	0	3
TAP	41	96	3
TAP	41	192	3
TAP	42	0	2
TAP	42	96	2
TAP	42	192	2
STR	43	0	1
SI_	43	0	1	96	288	4
TAP	45	0	5
TAP	45	96	5
TAP	45	192	5
TAP	45	288	5
TAP	46	0	6
TAP	46	96	6
TAP	46	192	6
TAP	46	288	6
TAP	47	0	7
TAP	47	96	7
TAP	47	192	0
TAP	47	288	0
BRK	48	0	7
STR	49	0	0
SI_	49	0	0	96	288	3
TAP	50	192	4
TAP	50	288	4
STR	51	0	4
SI_	51	0	4	96	288	7
TAP	52	192	1
TAP	52	288	1
STR	53	0	1
SI_	53	0	1	96	288	6
TAP	54	192	5
TAP	54	288	5
STR	55	0	5
SI_	55	0	5	96	288	2
TAP	56	192	0
TAP	56	288	0
TAP	57	0	1
TAP	57	96	1
TAP	57	192	0
TAP	57	192	1
HLD	58	0	3	192
TAP	59	0	5
TAP	59	96	5
TAP	59	192	4
TAP	59	192	5
HLD	60	0	7	192
TAP	61	0	6
TAP	61	96	6
TAP	61	192	6
TAP	61	192	7
HLD	62	0	4	192
TAP	63	0	2
TAP	63	96	2
TAP	63	192	2
TAP	63	192	3
HLD	64	0	0	192
TAP	65	0	0
TAP	65	96	0
TAP	65	192	0
TAP	66	0	1
TAP	66	96	1
TAP	66	192	1
TAP	67	0	2
TAP	67	96	2
TAP	67	192	3
TAP	67	288	3
HLD	68	0	4	192
TAP	69	0	4
TAP	69	96	4
TAP	69	192	4
TAP	70	0	5
TAP	70	96	5
TAP	70	192	5
TAP	71	0	6
TAP	71	96	6
TAP	71	192	7
TAP	71	288	7
HLD	72	0	0	192
TAP	73	0	7
TAP	73	96	7
TAP	73	192	7
TAP	73	288	7
TAP	74	0	6
TAP	74	96	6
TAP	74	192	6
TAP	74	288	6
TAP	75	0	5
TAP	75	96	5
TAP	75	192	4
TAP	75	288	4
TAP	76	0	3
TAP	76	0	4
TAP	76	96	3
TAP	76	96	4
TAP	76	192	3
TAP	76	192	4
TAP	77	0	3
TAP	77	96	3
TAP	77	192	3
TAP	77	288	3
TAP	78	0	2
TAP	78	96	2
TAP	78	192	2
TAP	78	288	2
TAP	79	0	1
TAP	79	96	1
TAP	79	192	0
TAP	79	288	0
TAP	80	0	0
TAP	80	0	7
TAP	80	96	0
TAP	80	96	7
BRK	80	192	1
BRK	80	192	6

T_REC_TAP	176
T_REC_BRK	3
T_REC_XTP	0
T_REC_HLD	10
T_REC_XHO	0
T_REC_STR	9
T_REC_BST	0
T_REC_XST	0
T_REC_TTP	0
T_REC_THO	0
T_REC_SLD	9
T_REC_ALL	207
T_NUM_TAP	185
T_NUM_BRK	3
T_NUM_HLD	10
T_NUM_SLD	9
T_NUM_ALL	207
T_JUDGE_TAP	188
T_JUDGE_HLD	40
T_JUDGE_SLD	9
T_JUDGE_ALL	237
TTM_EACHPAIRS	17
TTM_SCR_TAP	92500
TTM_SCR_BRK	7800
TTM_SCR_HLD	10000
TTM_SCR_SLD	13500
TTM_SCR_ALL	123800
TTM_SCR_S	119800
TTM_SCR_SS	123500
TTM_RAT_ACV	10024

