VERSION	0.00.00	1.03.00
FES_MODE	0
BPM_DEF	142.000	142.000	142.000	142.000
MET_DEF	4	4
RESOLUTION	384
CLK_DEF	384
COMPATIBLE_CODE	MA2

BPM	0	0	142.000
MET	0	0	4	4

TAP	1	0	3
TAP	1	72	3
HLD	1	144	3	240
TAP	2	0	5
TAP	2	72	5
HLD	2	144	5	240
TAP	3	0	1
TAP	3	72	1
TAP	3	96	0
HLD	3	144	1	240
TAP	3	192	7
TAP	3	288	6
HLD	4	0	5	72
HLD	4	72	3	72
STR	4	144	1
SCR	4	144	1	96	72	7
BRK	4	288	0
HLD	5	0	1	72
TAP	5	0	7
HLD	5	72	2	72
TAP	5	144	3
TAP	5	192	0
HLD	5	192	6	72
HLD	5	264	5	72
TAP	5	336	4
HLD	6	0	1	72
TAP	6	0	7
STR	6	72	3
SXL	6	72	3	96	120	7
HLD	6	144	0	192
TAP	6	336	7
TAP	6	360	0
TAP	7	0	6
TAP	7	24	4
TAP	7	48	5
TAP	7	72	3
TAP	7	96	4
TAP	7	120	2
TAP	7	144	3
TAP	7	168	1
HLD	7	192	7	72
HLD	7	264	5	72
TAP	7	336	4
HLD	8	0	0	72
TAP	8	0	6
HLD	8	72	2	72
TAP	8	144	3
STR	8	192	1
SV_	8	192	1	96	48	4
STR	8	192	7
SV_	8	192	7	96	48	4
TAP	8	288	1
TAP	8	288	7
BRK	9	0	2
BRK	9	0	6
STR	9	96	0
SCR	9	96	0	96	32	3
HLD	9	192	5	72
TAP	9	264	4
TAP	9	288	5
TAP	9	336	3
TAP	9	336	6
HLD	10	0	2	72
TAP	10	72	3
TAP	10	96	2
TAP	10	144	1
TAP	10	144	4
TAP	10	192	0
TAP	10	240	1
TAP	10	240	7
TAP	10	288	2
TAP	10	312	4
TAP	10	336	3
TAP	10	360	5
TAP	11	0	6
TAP	11	0	7
TAP	11	72	0
TAP	11	72	1
TAP	11	144	3
TAP	11	144	4
TAP	11	192	1
TAP	11	216	3
TAP	11	264	6
TAP	11	288	4
TAP	11	336	0
TAP	11	336	7
TAP	12	0	4
TAP	12	0	5
TAP	12	72	2
TAP	12	72	3
BRK	12	144	0
BRK	12	144	7
TAP	13	0	2
TAP	13	0	6
TAP	13	96	5
TAP	13	144	4
TAP	13	192	4
TAP	13	192	5
TAP	13	264	3
TAP	13	288	4
TAP	13	336	2
TAP	14	0	2
TAP	14	0	3
TAP	14	72	4
TAP	14	96	3
TAP	14	144	5
TAP	14	192	4
TAP	14	192	6
TAP	14	288	3
TAP	14	288	4
STR	15	0	1
SCL	15	0	1	96	96	6
TAP	15	0	3
STR	15	96	6
SXL	15	96	6	96	216	1
TAP	15	144	6
TAP	15	192	5
TAP	15	288	4
TAP	16	0	3
TAP	16	96	2
TAP	16	144	2
TAP	16	192	3
TAP	16	192	6
TAP	16	240	5
TAP	16	288	1
TAP	16	288	4
TAP	16	336	2
TAP	17	0	3
TAP	17	0	4
TAP	17	96	5
TAP	17	144	4
TAP	17	192	4
TAP	17	192	5
TAP	17	264	3
TAP	17	288	4
TAP	17	336	2
TAP	18	0	2
TAP	18	0	3
TAP	18	72	4
TAP	18	96	3
TAP	18	144	5
TAP	18	192	4
STR	18	192	6
SI_	18	192	6	96	32	2
TAP	18	288	2
TAP	19	0	1
TAP	19	0	3
TAP	19	72	4
TAP	19	96	3
TAP	19	144	5
STR	19	192	4
SI_	19	192	4	96	32	0
TAP	19	192	6
TAP	19	288	7
TAP	20	0	7
TAP	20	12	6
TAP	20	24	5
TAP	20	36	4
TAP	20	48	3
TAP	20	60	2
TAP	20	72	1
TAP	20	84	0
TAP	20	96	7
TAP	20	144	3
TAP	20	160	4
TAP	20	176	3
TAP	20	192	4
TAP	20	264	2
TAP	20	264	3
TAP	20	336	4
TAP	20	336	5
BRK	21	0	0
TAP	21	96	1
TAP	21	96	3
TAP	21	144	2
TAP	21	192	3
TAP	21	192	4
TAP	21	264	6
TAP	21	288	4
TAP	21	336	5
TAP	22	0	3
TAP	22	0	4
TAP	22	72	1
TAP	22	96	3
TAP	22	144	2
TAP	22	192	3
STR	22	192	4
SI_	22	192	4	96	32	7
STR	22	288	0
SI_	22	288	0	96	32	3
TAP	23	0	4
STR	23	96	5
SCR	23	96	5	96	192	2
TAP	23	144	5
TAP	23	192	3
TAP	23	288	3
TAP	24	0	4
TAP	24	96	3
TAP	24	96	4
TAP	24	144	5
TAP	24	192	2
TAP	24	192	3
TAP	24	240	1
TAP	24	288	4
TAP	24	288	5
TAP	24	336	6
TAP	25	0	3
TAP	25	0	4
TAP	25	96	3
TAP	25	96	5
TAP	25	192	2
TAP	25	192	4
TAP	25	240	1
TAP	25	288	0
STR	25	336	7
SI_	25	336	7	96	32	3
STR	26	48	1
SI_	26	48	1	96	24	7
STR	26	144	5
SI_	26	144	5	96	24	3
STR	26	240	1
SI_	26	240	1	96	32	5
TAP	26	336	6
STR	27	0	6
SCL	27	0	6	96	192	0
TAP	27	96	7
HLD	27	144	7	240
TAP	28	0	0
STR	28	48	7
SCL	28	48	7	96	32	4
STR	28	96	0
SCR	28	96	0	96	32	3
TAP	28	144	7
TAP	28	192	0
TAP	28	264	4
TAP	28	264	6
TAP	28	336	1
TAP	28	336	3
HLD	29	0	0	144
TAP	29	144	2
TAP	29	192	1
STR	29	192	3
SXR	29	192	3	96	96	3
TAP	29	240	4
TAP	29	288	5
TAP	29	312	5
HLD	30	0	7	144
TAP	30	144	5
STR	30	192	4
SXL	30	192	4	96	96	4
TAP	30	192	6
TAP	30	240	3
TAP	30	288	2
TAP	30	312	2
HLD	31	0	0	144
TAP	31	144	7
TAP	31	168	0
TAP	31	216	1
TAP	31	216	6
TAP	31	264	3
TAP	31	264	4
STR	31	288	3
SI_	31	288	3	96	32	7
STR	31	288	4
SI_	31	288	4	96	32	0
TAP	31	336	2
TAP	31	336	5
STR	32	96	1
SCL	32	96	1	96	32	6
TAP	32	96	6
TAP	32	192	1
STR	32	192	5
SCL	32	192	5	96	32	2
TAP	32	288	2
TAP	32	288	5
TAP	33	0	1
HLD	33	0	7	48
TAP	33	48	1
TAP	33	96	1
HLD	33	96	3	48
TAP	33	144	1
HLD	33	192	0	48
TAP	33	192	2
TAP	33	240	2
TAP	33	288	2
HLD	33	288	4	48
TAP	33	336	2
TAP	34	0	5
HLD	34	0	7	48
TAP	34	48	5
HLD	34	96	3	48
TAP	34	96	5
TAP	34	144	5
HLD	34	192	0	48
TAP	34	192	6
TAP	34	240	6
HLD	34	288	4	48
TAP	34	288	6
TAP	34	336	6
TAP	35	0	0
TAP	35	0	7
STR	35	48	1
SI_	35	48	1	96	32	5
TAP	35	96	0
TAP	35	96	2
TAP	35	144	1
STR	35	240	6
SI_	35	240	6	96	32	2
TAP	35	288	5
TAP	35	288	7
TAP	35	336	6
HLD	36	0	0	96
STR	36	96	7
SI_	36	96	7	96	32	4
STR	36	144	0
SI_	36	144	0	96	32	3
TAP	36	192	7
TAP	36	240	0
TAP	37	0	4
TAP	37	0	6
TAP	37	48	0
TAP	37	48	7
TAP	37	96	1
TAP	37	96	3
TAP	37	144	4
TAP	37	168	3
TAP	37	192	4
TAP	37	216	3
TAP	37	240	5
TAP	37	264	2
TAP	37	288	6
TAP	37	312	1
TAP	37	336	7
TAP	37	360	0
TAP	38	0	1
TAP	38	0	6
TAP	38	48	5
TAP	38	72	4
TAP	38	72	6
TAP	38	120	2
TAP	38	144	1
STR	38	144	3
SCL	38	144	3	96	96	4
TAP	39	0	2
TAP	39	12	3
TAP	39	24	4
TAP	39	36	5
TAP	39	48	6
TAP	39	60	7
TAP	39	72	0
TAP	39	84	1
TAP	39	96	2
TAP	39	108	3
TAP	39	120	4
TAP	39	132	5
TAP	39	144	6
TAP	39	156	7
TAP	39	168	0
TAP	39	180	1
STR	39	192	2
SI_	39	192	2	96	32	7
STR	39	192	6
SI_	39	192	6	96	32	3
TAP	39	240	3
TAP	39	240	7
BRK	39	288	2
BRK	39	288	6
TAP	40	0	1
TAP	40	0	5
TAP	40	48	0
TAP	40	72	7
TAP	40	120	7
TAP	40	144	1
TAP	40	192	2
TAP	40	192	6
TAP	40	240	5
TAP	40	264	4
TAP	40	312	4
TAP	40	336	6
TAP	41	0	0
HLD	41	0	2	72
STR	41	72	4
SCR	41	72	4	96	40	7
TAP	41	144	0
TAP	41	160	1
TAP	41	176	2
TAP	41	192	3
TAP	41	264	4
TAP	41	264	5
TAP	41	336	0
TAP	41	336	1
TAP	42	0	2
TAP	42	0	7
TAP	42	48	5
TAP	42	72	4
TAP	42	120	4
TAP	42	144	6
TAP	42	192	0
TAP	42	192	1
TAP	42	240	2
TAP	42	264	3
TAP	42	312	3
TAP	42	336	1
HLD	43	0	6	48
HLD	43	0	7	48
HLD	43	72	2	48
HLD	43	72	3	48
STR	43	144	4
SI_	43	144	4	96	32	0
TAP	43	144	5
STR	43	240	7
SCR	43	240	7	96	48	3
STR	43	288	6
SUL	43	288	6	96	96	4
TAP	43	336	7
TAP	44	0	6
TAP	44	96	0
HLD	44	192	6	72
TAP	44	264	7
TAP	44	288	6
TAP	44	336	0
TAP	44	336	5
TAP	45	0	1
TAP	45	0	4
TAP	45	48	2
TAP	45	96	3
TAP	45	96	6
TAP	45	144	5
TAP	45	168	5
TAP	45	192	4
TAP	45	240	6
TAP	45	240	7
TAP	45	288	0
TAP	45	288	5
TAP	45	336	2
TAP	45	360	2
TAP	46	0	3
TAP	46	48	0
TAP	46	48	1
TAP	46	96	2
TAP	46	96	7
TAP	46	144	4
TAP	46	168	4
TAP	46	192	3
TAP	46	240	5
TAP	46	264	4
TAP	46	264	6
TAP	46	312	2
TAP	46	336	1
TAP	46	336	3
HLD	47	0	6	48
HLD	47	0	7	48
HLD	47	72	0	48
HLD	47	72	1	48
TAP	47	144	3
TAP	47	144	4
STR	47	192	1
SI_	47	192	1	96	32	4
STR	47	192	6
SI_	47	192	6	96	32	3
TAP	47	240	0
TAP	47	240	7
BRK	47	288	1
BRK	47	288	6
TAP	48	0	0
TAP	48	0	7
TAP	48	48	6
TAP	48	72	7
TAP	48	120	7
TAP	48	144	5
TAP	48	192	3
TAP	48	192	4
TAP	48	240	1
TAP	48	264	0
TAP	48	312	0
TAP	48	336	2
HLD	49	0	5	72
TAP	49	0	7
STR	49	72	3
SCL	49	72	3	96	40	0
TAP	49	144	7
TAP	49	160	6
TAP	49	176	5
TAP	49	192	4
TAP	49	264	2
TAP	49	264	3
TAP	49	336	1
TAP	49	336	7
STR	50	0	0
SI_	50	0	0	96	32	4
STR	50	0	6
SI_	50	0	6	96	32	4
TAP	50	48	7
BRK	50	96	0
BRK	50	96	6
TAP	50	192	1
TAP	50	192	3
TAP	50	240	5
TAP	50	264	4
TAP	50	312	4
TAP	50	336	6
HLD	51	0	0	48
HLD	51	0	1	48
HLD	51	72	4	48
HLD	51	72	6	48
HLD	51	144	0	240
STR	51	144	5
SCR	51	144	5	96	80	3
TAP	51	336	4
TAP	51	352	5
TAP	51	368	6
BRK	52	0	7
STR	52	96	3
SCL	52	96	3	96	32	0
TAP	52	96	4
HLD	52	192	7	72
HLD	52	264	5	72
TAP	52	336	4
TAP	53	0	3
TAP	53	0	6
TAP	53	96	1
STR	53	96	4
SCR	53	96	4	96	32	7
HLD	53	192	0	72
HLD	53	264	2	72
TAP	53	336	3
TAP	54	0	1
TAP	54	0	4
TAP	54	48	2
TAP	54	48	5
TAP	54	96	3
TAP	54	96	6
TAP	54	144	0
TAP	54	144	7
TAP	54	192	1
TAP	54	204	2
TAP	54	216	3
TAP	54	228	4
TAP	54	240	7
TAP	54	252	6
TAP	54	264	5
TAP	54	276	4
TAP	54	288	0
TAP	54	300	1
TAP	54	312	2
TAP	54	324	3
TAP	54	336	6
TAP	54	348	5
TAP	54	360	4
TAP	54	372	3
BRK	55	0	0
STR	55	192	3
SI_	55	192	3	96	32	7
BST	55	288	0
SCR	55	288	0	96	96	6
STR	56	0	7
SXL	56	0	7	96	480	2
SXR	56	0	7	96	480	4
STR	58	0	1
SI_	58	0	1	96	32	3
TAP	58	0	5
TAP	58	96	4
TAP	58	192	2
STR	58	192	6
SI_	58	192	6	96	32	4
TAP	58	288	3
TAP	59	0	1
TAP	59	0	5
TAP	59	72	2
TAP	59	72	4
STR	59	144	3
SUR	59	144	3	96	96	4
HLD	60	0	5	384
HLD	61	0	3	144
TAP	61	144	4
TAP	61	160	3
TAP	61	176	5
TAP	61	192	4
TAP	61	264	4
TAP	61	336	3
TAP	61	336	5
HLD	62	0	3	96
HLD	62	0	5	96
HLD	62	192	2	96
HLD	62	192	4	96
TAP	63	0	3
TAP	63	72	3
TAP	63	144	2
STR	63	144	4
SUL	63	144	4	96	96	3
TAP	63	336	2
HLD	64	0	2	48
HLD	64	96	3	48
HLD	64	192	4	48
HLD	64	288	3	48
HLD	64	288	5	48
HLD	65	0	6	48
HLD	65	96	4	48
HLD	65	192	3	48
HLD	65	288	2	48
HLD	65	288	4	48
HLD	66	0	1	48
HLD	66	96	0	48
HLD	66	192	7	48
HLD	66	288	1	48
HLD	66	288	6	48
TAP	67	0	3
TAP	67	0	4
STR	67	72	1
SCR	67	72	1	96	24	3
STR	67	72	6
SCL	67	72	6	96	24	4
TAP	67	144	1
TAP	67	144	6
TAP	67	240	0
TAP	67	240	7
BRK	67	288	1
BRK	67	288	6
STR	68	0	7
SI_	68	0	7	96	32	3
TAP	68	12	6
TAP	68	24	5
TAP	68	36	4
TAP	68	48	3
TAP	68	60	2
TAP	68	72	1
TAP	68	84	0
STR	68	96	7
SCL	68	96	7	96	32	4
SCR	68	96	7	96	32	2
BST	68	192	7
SF_	68	192	7	96	32	3
BRK	68	288	7
TAP	69	0	1
TAP	69	0	5
TAP	69	48	0
TAP	69	72	7
TAP	69	120	7
TAP	69	144	1
TAP	69	192	2
TAP	69	192	6
TAP	69	240	5
TAP	69	264	4
TAP	69	312	4
TAP	69	336	6
TAP	70	0	0
HLD	70	0	2	72
STR	70	72	4
SCR	70	72	4	96	40	7
TAP	70	144	0
TAP	70	160	1
TAP	70	176	2
TAP	70	192	3
TAP	70	264	4
TAP	70	264	5
TAP	70	336	0
TAP	70	336	1
TAP	71	0	2
TAP	71	0	7
TAP	71	48	5
TAP	71	72	4
TAP	71	120	4
TAP	71	144	6
TAP	71	192	0
TAP	71	192	1
TAP	71	240	2
TAP	71	264	3
TAP	71	312	3
TAP	71	336	1
HLD	72	0	6	48
HLD	72	0	7	48
HLD	72	72	1	48
HLD	72	72	3	48
STR	72	144	2
SCL	72	144	2	96	80	4
HLD	72	144	7	240
TAP	72	336	3
TAP	72	352	2
TAP	72	368	1
BRK	73	0	0
TAP	73	96	3
STR	73	96	4
SCR	73	96	4	96	32	7
HLD	73	192	1	72
TAP	73	264	0
TAP	73	288	1
TAP	73	336	2
TAP	74	0	3
TAP	74	0	4
TAP	74	48	2
STR	74	96	3
SCL	74	96	3	96	32	0
TAP	74	96	4
TAP	74	144	5
HLD	74	192	6	72
TAP	74	264	7
TAP	74	288	6
TAP	74	336	5
STR	75	0	0
SI_	75	0	0	96	24	2
TAP	75	0	4
STR	75	48	7
SI_	75	48	7	96	24	5
STR	75	96	0
SI_	75	96	0	96	32	4
STR	75	144	7
SI_	75	144	7	96	32	3
STR	75	192	0
SCR	75	192	0	96	32	3
STR	75	240	7
SCL	75	240	7	96	32	4
STR	75	288	0
SI_	75	288	0	96	32	4
TAP	75	336	7
BRK	76	0	0
TAP	76	192	2
STR	76	192	6
SI_	76	192	6	96	48	2
BST	76	288	4
SCR	76	288	4	96	219	6
SCR	76	288	4	96	330	7
SCR	76	288	4	96	438	0
SCR	76	288	4	96	549	1
SCR	76	288	4	96	660	2
SCR	76	288	4	96	768	3

T_REC_TAP	482
T_REC_BRK	19
T_REC_XTP	0
T_REC_HLD	79
T_REC_XHO	0
T_REC_STR	66
T_REC_BST	3
T_REC_XST	0
T_REC_TTP	0
T_REC_THO	0
T_REC_SLD	76
T_REC_ALL	725
T_NUM_TAP	548
T_NUM_BRK	22
T_NUM_HLD	79
T_NUM_SLD	76
T_NUM_ALL	725
T_JUDGE_TAP	570
T_JUDGE_HLD	149
T_JUDGE_SLD	76
T_JUDGE_ALL	795
TTM_EACHPAIRS	148
TTM_SCR_TAP	274000
TTM_SCR_BRK	57200
TTM_SCR_HLD	79000
TTM_SCR_SLD	114000
TTM_SCR_ALL	524200
TTM_SCR_S	506350
TTM_SCR_SS	522000
TTM_RAT_ACV	10042

