VERSION	0.00.00	1.03.00
FES_MODE	0
BPM_DEF	142.000	142.000	142.000	142.000
MET_DEF	4	4
RESOLUTION	384
CLK_DEF	384
COMPATIBLE_CODE	MA2

BPM	0	0	142.000
MET	0	0	4	4

STR	1	0	3
SCL	1	0	3	96	96	0
TAP	1	0	4
TAP	1	72	6
TAP	1	144	7
TAP	1	192	7
TAP	1	264	5
TAP	1	336	4
TAP	2	0	3
STR	2	0	4
SCR	2	0	4	96	96	7
TAP	2	72	1
TAP	2	144	0
HLD	2	192	0	96
TAP	2	288	7
TAP	3	0	3
TAP	3	0	4
TAP	3	72	6
TAP	3	96	2
TAP	3	144	7
TAP	3	192	1
TAP	3	288	0
TAP	3	336	4
TAP	4	0	3
TAP	4	0	4
TAP	4	72	1
TAP	4	72	6
TAP	4	144	0
TAP	4	144	7
STR	4	192	3
SI_	4	192	3	96	48	0
STR	4	192	4
SI_	4	192	4	96	48	7
TAP	4	288	3
TAP	4	288	4
STR	5	0	4
SI_	5	0	4	96	48	1
TAP	5	0	5
TAP	5	96	4
TAP	5	96	6
TAP	5	192	2
STR	5	192	3
SI_	5	192	3	96	48	6
TAP	5	288	1
TAP	5	288	3
STR	6	0	4
SI_	6	0	4	96	48	0
TAP	6	0	5
TAP	6	96	4
TAP	6	96	6
TAP	6	192	2
STR	6	192	3
SI_	6	192	3	96	48	7
TAP	6	288	1
TAP	6	288	3
TAP	7	0	6
TAP	7	24	4
TAP	7	48	5
TAP	7	72	3
TAP	7	96	4
TAP	7	120	2
TAP	7	144	3
TAP	7	168	1
HLD	7	192	2	72
HLD	7	264	0	72
TAP	7	336	7
HLD	8	0	5	72
HLD	8	72	7	72
TAP	8	144	0
STR	8	192	1
SI_	8	192	1	96	48	4
STR	8	192	5
SI_	8	192	5	96	48	0
TAP	8	288	1
TAP	8	288	5
TAP	9	0	2
STR	9	0	3
SI_	9	0	3	96	48	6
TAP	9	48	1
TAP	9	96	0
TAP	9	96	3
STR	9	192	4
SI_	9	192	4	96	48	1
TAP	9	192	5
TAP	9	240	6
TAP	9	288	4
TAP	9	288	7
TAP	10	0	2
STR	10	0	3
SI_	10	0	3	96	48	7
TAP	10	48	1
TAP	10	96	0
TAP	10	96	3
STR	10	192	4
SI_	10	192	4	96	48	0
TAP	10	192	5
TAP	10	240	6
TAP	10	288	4
TAP	10	288	7
TAP	11	0	3
TAP	11	0	4
TAP	11	72	1
TAP	11	72	3
TAP	11	144	0
TAP	11	144	7
TAP	11	192	3
TAP	11	192	4
TAP	11	264	4
TAP	11	264	6
TAP	11	336	0
TAP	11	336	7
TAP	12	0	1
TAP	12	0	6
TAP	12	72	3
TAP	12	72	4
BRK	12	144	0
BRK	12	144	7
TAP	13	0	1
STR	13	0	3
SCR	13	0	3	96	48	5
TAP	13	96	3
TAP	13	96	5
STR	13	192	4
SCL	13	192	4	96	48	2
TAP	13	192	6
TAP	13	288	2
TAP	13	288	4
TAP	14	0	1
STR	14	0	3
SCR	14	0	3	96	48	5
TAP	14	96	3
TAP	14	96	5
STR	14	192	4
SCL	14	192	4	96	48	2
TAP	14	192	6
TAP	14	288	2
TAP	14	288	4
TAP	15	0	1
STR	15	0	3
SI_	15	0	3	96	48	5
TAP	15	48	4
TAP	15	96	3
TAP	15	96	6
STR	15	192	4
SI_	15	192	4	96	48	2
TAP	15	192	6
TAP	15	240	3
TAP	15	288	1
TAP	15	288	4
TAP	16	0	1
STR	16	0	3
SI_	16	0	3	96	48	5
TAP	16	48	4
TAP	16	96	3
TAP	16	96	6
STR	16	192	4
SI_	16	192	4	96	48	2
TAP	16	192	6
TAP	16	240	3
TAP	16	288	1
TAP	16	288	4
TAP	17	0	5
STR	17	0	7
SCR	17	0	7	96	48	1
TAP	17	96	2
TAP	17	96	7
STR	17	192	0
SCL	17	192	0	96	48	6
TAP	17	192	2
TAP	17	288	0
TAP	17	288	5
TAP	18	0	5
STR	18	0	7
SCR	18	0	7	96	48	1
TAP	18	96	2
TAP	18	96	7
STR	18	192	0
SCL	18	192	0	96	48	6
TAP	18	192	2
TAP	18	288	0
TAP	18	288	5
TAP	19	0	5
STR	19	0	7
SI_	19	0	7	96	48	1
TAP	19	48	0
TAP	19	96	2
TAP	19	96	7
STR	19	192	0
SI_	19	192	0	96	48	6
TAP	19	192	2
TAP	19	240	7
STR	19	288	0
SCR	19	288	0	96	96	7
TAP	19	288	5
TAP	20	144	4
TAP	20	160	3
TAP	20	176	4
TAP	20	192	3
TAP	20	264	4
TAP	20	264	6
TAP	20	336	3
TAP	20	336	4
TAP	21	0	1
STR	21	0	3
SI_	21	0	3	96	48	7
TAP	21	48	4
TAP	21	96	3
TAP	21	96	6
STR	21	192	4
SI_	21	192	4	96	48	0
TAP	21	192	6
TAP	21	240	3
TAP	21	288	1
TAP	21	288	4
TAP	22	0	1
STR	22	0	3
SI_	22	0	3	96	48	7
TAP	22	48	4
TAP	22	96	3
TAP	22	96	6
STR	22	192	4
SI_	22	192	4	96	48	0
TAP	22	192	6
TAP	22	240	3
TAP	22	288	1
TAP	22	288	4
TAP	23	0	1
STR	23	0	3
SI_	23	0	3	96	48	7
TAP	23	48	4
TAP	23	96	3
TAP	23	96	6
TAP	23	144	5
STR	23	192	4
SI_	23	192	4	96	48	0
TAP	23	192	6
TAP	23	240	3
TAP	23	288	1
TAP	23	288	4
TAP	23	336	2
TAP	24	0	1
STR	24	0	3
SI_	24	0	3	96	48	7
TAP	24	48	4
TAP	24	96	3
TAP	24	96	6
TAP	24	144	5
STR	24	192	4
SI_	24	192	4	96	48	0
TAP	24	192	6
TAP	24	240	3
TAP	24	288	1
TAP	24	288	4
TAP	24	336	2
TAP	25	0	1
STR	25	0	3
SCL	25	0	3	96	48	0
TAP	25	48	4
TAP	25	96	3
TAP	25	96	6
STR	25	192	4
SCR	25	192	4	96	48	7
TAP	25	192	6
TAP	25	240	3
TAP	25	288	1
TAP	25	288	4
TAP	26	0	1
STR	26	0	3
SCL	26	0	3	96	48	0
TAP	26	48	4
TAP	26	96	3
TAP	26	96	6
STR	26	192	4
SCR	26	192	4	96	48	7
TAP	26	192	6
TAP	26	240	3
TAP	26	288	1
TAP	26	288	4
TAP	27	0	1
STR	27	0	3
SCL	27	0	3	96	48	0
TAP	27	48	4
TAP	27	96	3
TAP	27	96	6
TAP	27	144	5
STR	27	192	4
SCR	27	192	4	96	48	7
TAP	27	192	6
TAP	27	240	3
TAP	27	288	1
TAP	27	288	4
TAP	27	336	2
TAP	28	0	1
STR	28	0	3
SCL	28	0	3	96	48	0
TAP	28	48	4
TAP	28	96	3
TAP	28	96	6
TAP	28	144	5
TAP	28	192	4
TAP	28	192	6
TAP	28	264	1
TAP	28	264	3
TAP	28	336	0
TAP	28	336	7
TAP	29	0	3
TAP	29	0	6
TAP	29	72	2
TAP	29	72	4
STR	29	144	0
SI_	29	144	0	96	48	3
TAP	29	144	3
TAP	29	192	5
TAP	29	240	0
TAP	29	240	7
TAP	29	288	5
TAP	29	312	4
TAP	30	0	1
TAP	30	0	4
TAP	30	72	3
TAP	30	72	5
TAP	30	144	4
STR	30	144	7
SI_	30	144	7	96	48	4
TAP	30	192	2
TAP	30	240	0
TAP	30	240	7
TAP	30	288	2
TAP	30	312	3
TAP	31	0	3
TAP	31	0	6
TAP	31	72	2
TAP	31	72	4
TAP	31	144	2
TAP	31	168	3
TAP	31	216	1
TAP	31	216	4
TAP	31	264	5
TAP	31	288	4
TAP	31	336	3
TAP	31	336	6
STR	32	0	2
SI_	32	0	2	96	48	7
TAP	32	0	4
TAP	32	96	2
STR	32	96	4
SI_	32	96	4	96	48	0
STR	32	192	3
SI_	32	192	3	96	48	7
TAP	32	192	4
TAP	32	288	3
STR	33	0	2
SCR	33	0	2	96	48	5
TAP	33	0	6
TAP	33	48	7
TAP	33	96	0
TAP	33	96	2
TAP	33	192	1
STR	33	192	5
SCL	33	192	5	96	48	2
TAP	33	240	0
TAP	33	288	5
TAP	33	288	7
STR	34	0	2
SCR	34	0	2	96	48	5
TAP	34	0	6
TAP	34	48	7
TAP	34	96	0
TAP	34	96	2
TAP	34	192	1
STR	34	192	5
SCL	34	192	5	96	48	2
TAP	34	240	0
TAP	34	288	5
TAP	34	288	7
TAP	35	0	2
STR	35	0	3
SUR	35	0	3	96	48	7
TAP	35	96	0
TAP	35	96	3
STR	35	192	4
SUL	35	192	4	96	48	0
TAP	35	192	5
TAP	35	288	4
TAP	35	288	7
STR	36	0	0
SCR	36	0	0	96	48	3
STR	36	0	7
SCL	36	0	7	96	48	4
TAP	36	96	0
TAP	36	96	7
TAP	36	192	0
TAP	36	192	7
TAP	36	240	2
TAP	36	240	5
TAP	37	0	4
STR	37	0	6
SCR	37	0	6	96	48	1
TAP	37	48	3
TAP	37	96	2
TAP	37	96	6
STR	37	192	1
SCL	37	192	1	96	48	6
TAP	37	192	3
TAP	37	240	4
TAP	37	288	1
TAP	37	288	5
TAP	38	0	4
TAP	38	0	6
TAP	38	72	0
TAP	38	72	1
STR	38	144	2
SCL	38	144	2	96	96	5
TAP	38	144	5
TAP	39	0	4
TAP	39	12	5
TAP	39	24	6
TAP	39	36	7
TAP	39	48	0
TAP	39	60	1
TAP	39	72	2
TAP	39	84	3
TAP	39	96	4
TAP	39	108	5
TAP	39	120	6
TAP	39	132	7
TAP	39	144	0
TAP	39	156	1
TAP	39	168	2
TAP	39	180	3
STR	39	192	4
SI_	39	192	4	96	48	0
TAP	39	288	4
BRK	39	288	6
STR	40	0	3
SI_	40	0	3	96	48	0
STR	40	0	5
SCL	40	0	5	96	48	2
TAP	40	96	3
STR	40	96	5
SI_	40	96	5	96	48	7
STR	40	192	4
SI_	40	192	4	96	48	0
TAP	40	192	5
TAP	40	288	4
STR	40	288	7
SI_	40	288	7	96	48	2
STR	41	0	1
SI_	41	0	1	96	48	5
TAP	41	0	7
TAP	41	96	1
STR	41	96	3
SCL	41	96	3	96	48	0
SCR	41	96	3	96	48	6
TAP	41	192	3
TAP	41	288	1
TAP	41	288	5
STR	42	0	2
SCR	42	0	2	96	48	5
STR	42	0	4
SI_	42	0	4	96	48	7
STR	42	96	2
SI_	42	96	2	96	48	0
TAP	42	96	4
TAP	42	192	2
STR	42	192	3
SI_	42	192	3	96	48	7
STR	42	288	0
SI_	42	288	0	96	48	5
TAP	42	288	3
TAP	43	0	0
STR	43	0	6
SI_	43	0	6	96	48	2
STR	43	96	4
SCL	43	96	4	96	48	1
SCR	43	96	4	96	48	7
TAP	43	96	6
TAP	43	192	4
TAP	43	288	2
TAP	43	288	6
TAP	44	0	1
STR	44	0	2
SI_	44	0	2	96	48	0
TAP	44	96	2
STR	44	96	7
SI_	44	96	7	96	48	3
STR	44	192	4
SI_	44	192	4	96	48	6
TAP	44	192	7
TAP	44	288	3
TAP	44	288	4
STR	45	0	5
SI_	45	0	5	96	48	7
TAP	45	0	6
STR	45	96	0
SI_	45	96	0	96	48	4
TAP	45	96	5
TAP	45	192	0
STR	45	192	3
SI_	45	192	3	96	48	1
STR	45	288	0
SF_	45	288	0	96	48	4
TAP	45	288	3
TAP	46	0	0
TAP	46	96	2
TAP	46	96	6
TAP	46	144	1
TAP	46	168	6
TAP	46	192	0
TAP	46	192	7
TAP	46	264	1
TAP	46	264	3
TAP	46	336	4
TAP	46	336	6
TAP	47	0	0
TAP	47	0	7
TAP	47	72	4
TAP	47	72	6
TAP	47	144	1
TAP	47	144	3
TAP	47	192	0
STR	47	192	7
SI_	47	192	7	96	48	3
TAP	47	240	2
TAP	47	288	4
TAP	47	288	7
STR	48	0	0
SI_	48	0	0	96	48	3
STR	48	0	6
SCR	48	0	6	96	48	1
TAP	48	96	0
STR	48	96	6
SI_	48	96	6	96	48	4
TAP	48	192	6
STR	48	192	7
SI_	48	192	7	96	48	3
STR	48	288	4
SI_	48	288	4	96	48	1
TAP	48	288	7
STR	49	0	2
SI_	49	0	2	96	48	6
TAP	49	0	4
STR	49	96	0
SCL	49	96	0	96	48	5
SCR	49	96	0	96	48	3
TAP	49	96	2
TAP	49	192	0
TAP	49	288	2
TAP	49	288	6
STR	50	0	1
SCL	50	0	1	96	48	6
STR	50	0	7
SI_	50	0	7	96	48	4
STR	50	96	1
SI_	50	96	1	96	48	3
TAP	50	96	7
STR	50	192	0
SI_	50	192	0	96	48	4
TAP	50	192	1
TAP	50	288	0
TAP	50	288	3
TAP	51	0	3
TAP	51	0	6
TAP	51	48	1
TAP	51	72	1
TAP	51	72	4
TAP	51	120	6
TAP	51	144	1
TAP	51	144	6
TAP	51	240	3
TAP	51	240	4
TAP	51	288	1
TAP	51	288	6
STR	52	0	1
SCR	52	0	1	96	48	4
STR	52	0	4
SCR	52	0	4	96	48	7
TAP	52	96	1
TAP	52	96	4
STR	52	192	4
SCL	52	192	4	96	48	1
STR	52	192	7
SCL	52	192	7	96	48	4
TAP	52	288	4
TAP	52	288	7
TAP	53	0	2
STR	53	0	7
SCL	53	0	7	96	96	4
STR	53	96	4
SCL	53	96	4	96	96	1
STR	53	192	1
SCL	53	192	1	96	96	6
STR	53	288	6
SCL	53	288	6	96	96	3
TAP	54	0	3
TAP	54	48	2
TAP	54	96	1
TAP	54	144	0
TAP	54	192	0
TAP	54	204	1
TAP	54	216	2
TAP	54	228	3
TAP	54	240	4
TAP	54	252	5
TAP	54	264	6
TAP	54	276	7
TAP	54	288	0
TAP	54	336	2
TAP	54	336	6
STR	55	0	0
SCR	55	0	0	96	48	4
STR	55	0	4
SLR	55	0	4	96	48	1
TAP	55	96	0
TAP	55	96	4
STR	55	192	4
SI_	55	192	4	96	48	0
TAP	55	288	4
BRK	55	288	6
STR	56	0	0
SV_	56	0	0	96	48	3
SV_	56	0	0	96	48	5
STR	56	96	0
SCR	56	96	0	96	144	7
STR	57	0	4
SI_	57	0	4	96	48	6
SV_	57	0	4	96	48	7
TAP	57	0	6
TAP	57	96	4
TAP	57	192	1
STR	57	192	3
SI_	57	192	3	96	48	1
SV_	57	192	3	96	48	0
TAP	57	288	3
STR	58	0	4
SI_	58	0	4	96	48	0
SV_	58	0	4	96	48	7
TAP	58	0	6
TAP	58	96	4
TAP	58	192	1
STR	58	192	3
SI_	58	192	3	96	48	7
SV_	58	192	3	96	48	0
TAP	58	288	3
TAP	59	0	5
STR	59	0	7
SI_	59	0	7	96	48	3
SV_	59	0	7	96	48	4
TAP	59	96	7
STR	59	192	0
SI_	59	192	0	96	48	4
SV_	59	192	0	96	48	3
TAP	59	192	2
TAP	59	288	0
TAP	60	0	3
HLD	60	0	7	288
STR	60	288	6
SCL	60	288	6	96	192	1
TAP	61	288	3
TAP	61	288	4
STR	62	0	4
SI_	62	0	4	96	48	1
HLD	62	0	6	96
HLD	62	192	1	96
STR	62	192	3
SI_	62	192	3	96	48	6
TAP	63	0	4
TAP	63	0	6
TAP	63	72	1
TAP	63	72	3
TAP	63	144	2
TAP	63	144	5
STR	63	192	3
SI_	63	192	3	96	48	0
STR	63	192	4
SI_	63	192	4	96	48	7
TAP	63	288	3
TAP	63	288	4
STR	64	0	1
SI_	64	0	1	96	48	6
TAP	64	0	4
TAP	64	48	5
TAP	64	96	1
TAP	64	96	7
TAP	64	192	3
STR	64	192	6
SI_	64	192	6	96	48	1
TAP	64	240	2
TAP	64	288	0
TAP	64	288	6
STR	65	0	2
SI_	65	0	2	96	48	5
TAP	65	0	7
TAP	65	48	6
TAP	65	96	2
TAP	65	96	4
TAP	65	192	0
STR	65	192	5
SI_	65	192	5	96	48	2
TAP	65	240	1
TAP	65	288	3
TAP	65	288	5
TAP	66	0	1
TAP	66	0	4
TAP	66	144	3
TAP	66	168	4
TAP	66	192	2
TAP	66	192	5
TAP	66	264	0
TAP	66	264	5
TAP	66	336	2
TAP	66	336	7
TAP	67	0	1
TAP	67	0	6
TAP	67	48	4
TAP	67	72	1
TAP	67	72	4
TAP	67	120	3
TAP	67	144	3
TAP	67	144	6
TAP	67	192	0
STR	67	192	7
SI_	67	192	7	96	48	3
TAP	67	240	2
TAP	67	288	4
TAP	67	288	7
BRK	68	0	1
TAP	68	12	2
TAP	68	24	3
TAP	68	36	4
BRK	68	48	6
TAP	68	60	5
TAP	68	72	4
TAP	68	84	3
BRK	68	96	0
TAP	68	108	1
TAP	68	120	2
TAP	68	132	3
BRK	68	144	7
TAP	68	156	6
TAP	68	168	5
TAP	68	180	4
STR	68	192	3
SI_	68	192	3	96	48	7
BRK	68	288	1
TAP	68	288	3
STR	69	0	3
SCL	69	0	3	96	48	0
STR	69	0	6
SCL	69	0	6	96	48	3
STR	69	96	3
SI_	69	96	3	96	48	7
TAP	69	192	3
STR	69	192	7
SF_	69	192	7	96	48	3
TAP	69	288	7
STR	70	0	1
SCR	70	0	1	96	48	4
STR	70	0	4
SCR	70	0	4	96	48	7
STR	70	96	4
SI_	70	96	4	96	48	0
STR	70	192	0
SF_	70	192	0	96	48	4
TAP	70	192	4
TAP	70	288	0
STR	71	0	3
SCL	71	0	3	96	48	0
STR	71	0	6
SCL	71	0	6	96	48	3
STR	71	96	3
SI_	71	96	3	96	48	7
TAP	71	192	3
BST	71	192	7
SF_	71	192	7	96	48	3
BRK	71	288	7
HLD	72	0	0	48
HLD	72	0	6	48
HLD	72	72	2	48
HLD	72	72	4	48
TAP	72	144	3
TAP	72	144	4
STR	72	192	3
SCL	72	192	3	96	48	0
STR	72	192	4
SCR	72	192	4	96	48	7
TAP	72	288	3
TAP	72	288	4
STR	73	0	5
SLL	73	0	5	96	48	0
STR	73	0	6
SLL	73	0	6	96	48	0
STR	73	192	1
SLR	73	192	1	96	48	7
STR	73	192	2
SLR	73	192	2	96	48	7
STR	74	0	0
SCR	74	0	0	96	96	3
TAP	74	0	5
STR	74	96	3
SCR	74	96	3	96	96	6
STR	74	192	6
SCR	74	192	6	96	96	1
STR	74	288	1
SCR	74	288	1	96	96	4
TAP	75	0	4
TAP	75	48	5
TAP	75	96	6
TAP	75	144	7
TAP	75	192	7
TAP	75	204	6
TAP	75	216	5
TAP	75	228	4
TAP	75	240	3
TAP	75	252	2
TAP	75	264	1
TAP	75	276	0
TAP	75	288	7
TAP	75	336	1
TAP	75	336	5
STR	76	0	3
SLL	76	0	3	96	48	6
STR	76	0	7
SCL	76	0	7	96	48	3
TAP	76	96	3
TAP	76	96	7
STR	76	192	3
SI_	76	192	3	96	48	7
BRK	76	288	1
TAP	76	288	3
STR	77	0	7
SCL	77	0	7	96	576	0

T_REC_TAP	499
T_REC_BRK	11
T_REC_XTP	0
T_REC_HLD	12
T_REC_XHO	0
T_REC_STR	149
T_REC_BST	1
T_REC_XST	0
T_REC_TTP	0
T_REC_THO	0
T_REC_SLD	160
T_REC_ALL	832
T_NUM_TAP	648
T_NUM_BRK	12
T_NUM_HLD	12
T_NUM_SLD	160
T_NUM_ALL	832
T_JUDGE_TAP	660
T_JUDGE_HLD	24
T_JUDGE_SLD	160
T_JUDGE_ALL	844
TTM_EACHPAIRS	244
TTM_SCR_TAP	324000
TTM_SCR_BRK	31200
TTM_SCR_HLD	12000
TTM_SCR_SLD	240000
TTM_SCR_ALL	607200
TTM_SCR_S	587850
TTM_SCR_SS	606000
TTM_RAT_ACV	10019

