VERSION	0.00.00	1.03.00
FES_MODE	0
BPM_DEF	142.000	142.000	142.000	142.000
MET_DEF	4	4
RESOLUTION	384
CLK_DEF	384
COMPATIBLE_CODE	MA2

BPM	0	0	142.000
MET	0	0	4	4

HLD	1	0	5	72
HLD	1	72	4	72
TAP	1	144	3
TAP	1	288	3
TAP	1	288	4
HLD	2	0	2	72
HLD	2	72	3	72
TAP	2	144	4
TAP	2	288	3
TAP	2	288	4
HLD	3	0	6	72
HLD	3	72	5	72
TAP	3	144	4
TAP	3	288	4
TAP	3	288	5
HLD	4	0	3	72
HLD	4	72	2	72
TAP	4	144	1
TAP	4	240	0
TAP	4	240	7
TAP	4	288	1
TAP	4	288	6
TAP	5	0	4
HLD	5	0	5	96
TAP	5	96	7
HLD	5	192	2	96
TAP	5	192	3
TAP	5	288	0
TAP	6	0	4
HLD	6	0	5	96
HLD	6	96	7	96
STR	6	192	3
SI_	6	192	3	96	48	0
TAP	7	0	0
HLD	7	0	1	96
HLD	7	96	3	96
TAP	7	192	4
TAP	7	288	2
TAP	7	288	5
TAP	8	0	1
TAP	8	0	3
TAP	8	72	3
TAP	8	72	4
TAP	8	144	4
TAP	8	144	6
STR	8	192	6
SI_	8	192	6	96	48	2
HLD	9	0	2	96
TAP	9	0	3
TAP	9	96	0
TAP	9	192	4
HLD	9	192	5	96
TAP	9	288	7
HLD	10	0	2	96
TAP	10	0	3
HLD	10	96	0	96
STR	10	192	4
SI_	10	192	4	96	48	7
TAP	11	0	4
TAP	11	0	6
TAP	11	72	3
TAP	11	72	4
TAP	11	144	1
TAP	11	144	3
TAP	11	192	3
TAP	11	192	4
TAP	11	264	4
TAP	11	264	6
TAP	11	336	0
TAP	11	336	7
TAP	12	0	0
TAP	12	0	7
TAP	12	72	3
TAP	12	72	4
TAP	12	144	1
TAP	12	144	6
TAP	13	0	3
TAP	13	0	4
TAP	13	96	3
TAP	13	144	2
HLD	13	192	1	72
HLD	13	264	2	72
TAP	13	336	3
HLD	14	0	4	72
HLD	14	72	5	72
TAP	14	144	6
TAP	14	288	4
TAP	14	288	5
TAP	15	0	2
STR	15	0	3
SCR	15	0	3	96	192	7
TAP	15	96	2
TAP	15	192	1
TAP	15	288	1
TAP	16	0	0
TAP	16	96	0
TAP	16	192	2
TAP	16	192	3
TAP	16	288	1
TAP	16	288	4
TAP	17	0	3
TAP	17	0	4
TAP	17	96	4
TAP	17	144	5
HLD	17	192	6	72
HLD	17	264	5	72
TAP	17	336	4
HLD	18	0	3	72
HLD	18	72	2	72
TAP	18	144	1
TAP	18	288	2
TAP	18	288	3
STR	19	0	4
SCL	19	0	4	96	192	0
TAP	19	0	5
TAP	19	96	5
TAP	19	192	6
TAP	19	288	6
TAP	20	0	7
TAP	20	96	7
TAP	20	192	4
TAP	20	192	5
TAP	20	288	3
TAP	20	288	6
TAP	21	0	0
TAP	21	0	7
TAP	21	96	0
TAP	21	144	1
HLD	21	192	2	72
HLD	21	264	1	72
TAP	21	336	0
HLD	22	0	7	72
HLD	22	72	6	72
TAP	22	144	5
TAP	22	288	6
TAP	22	288	7
STR	23	0	0
SCL	23	0	0	96	192	4
TAP	23	0	1
TAP	23	96	1
TAP	23	192	2
TAP	23	288	2
TAP	24	0	3
TAP	24	96	3
TAP	24	192	0
TAP	24	192	1
TAP	24	288	2
TAP	24	288	7
TAP	25	0	0
TAP	25	0	7
STR	25	96	1
SI_	25	96	1	96	96	6
STR	25	96	5
SI_	25	96	5	96	96	2
TAP	26	0	3
TAP	26	0	4
STR	26	96	2
SI_	26	96	2	96	96	5
STR	26	96	6
SI_	26	96	6	96	96	1
TAP	27	0	6
STR	27	0	7
SCR	27	0	7	96	192	3
TAP	27	96	6
TAP	27	192	5
TAP	27	288	5
TAP	28	0	4
STR	28	96	4
SF_	28	96	4	96	96	0
TAP	29	0	3
HLD	29	0	5	192
TAP	29	144	4
STR	29	192	4
SI_	29	192	4	96	48	1
HLD	30	0	2	192
TAP	30	0	4
TAP	30	144	3
STR	30	192	3
SI_	30	192	3	96	48	6
TAP	31	0	3
HLD	31	0	5	192
TAP	31	144	4
STR	31	192	4
SI_	31	192	4	96	48	0
HLD	32	0	2	192
TAP	32	0	4
TAP	32	144	3
STR	32	192	3
SI_	32	192	3	96	48	7
TAP	33	0	4
TAP	33	0	5
TAP	33	48	3
TAP	33	96	1
TAP	33	192	2
TAP	33	192	3
TAP	33	240	1
TAP	33	288	0
TAP	34	0	2
TAP	34	0	3
TAP	34	48	4
TAP	34	96	6
TAP	34	192	4
TAP	34	192	5
TAP	34	240	6
TAP	34	288	7
TAP	35	0	3
TAP	35	0	6
TAP	35	48	2
TAP	35	96	1
TAP	35	144	0
TAP	35	192	1
TAP	35	192	4
TAP	35	240	5
TAP	35	288	6
TAP	35	336	7
HLD	36	0	7	96
TAP	36	96	0
TAP	36	192	1
TAP	36	192	6
TAP	36	240	1
TAP	36	240	6
HLD	37	0	0	384
TAP	37	0	4
TAP	37	48	4
TAP	37	96	4
TAP	37	144	4
TAP	37	192	5
TAP	37	240	5
TAP	37	288	6
TAP	37	336	6
TAP	38	0	7
TAP	38	72	3
TAP	38	72	4
TAP	38	144	1
TAP	38	144	6
TAP	38	240	3
TAP	38	240	4
BST	38	288	3
SCL	38	288	3	96	96	0
BST	38	288	4
SCR	38	288	4	96	96	7
HLD	39	192	1	96
STR	39	192	3
SI_	39	192	3	96	48	7
STR	40	0	4
SCL	40	0	4	96	48	1
TAP	40	0	5
TAP	40	96	7
TAP	40	192	2
STR	40	192	3
SCR	40	192	3	96	48	6
TAP	40	288	0
HLD	41	0	7	72
HLD	41	72	5	72
TAP	41	144	4
TAP	41	240	2
TAP	41	240	6
TAP	41	288	1
TAP	41	288	5
TAP	42	0	2
STR	42	0	3
SCR	42	0	3	96	48	6
TAP	42	96	0
STR	42	192	4
SCL	42	192	4	96	48	1
TAP	42	192	5
TAP	42	288	7
STR	43	0	3
SF_	43	0	3	96	96	7
TAP	43	240	1
TAP	43	240	5
TAP	43	288	2
TAP	43	288	6
TAP	44	0	3
STR	44	0	6
SI_	44	0	6	96	48	0
STR	44	192	2
SI_	44	192	2	96	48	4
TAP	44	192	7
TAP	45	0	3
STR	45	0	6
SI_	45	0	6	96	48	0
STR	45	192	2
SI_	45	192	2	96	48	4
TAP	45	192	7
HLD	46	0	3	96
HLD	46	0	7	96
TAP	46	192	4
TAP	46	192	6
TAP	46	264	3
TAP	46	264	4
TAP	46	336	1
TAP	46	336	3
TAP	47	0	1
TAP	47	0	3
TAP	47	72	3
TAP	47	72	4
TAP	47	144	4
TAP	47	144	6
TAP	47	192	4
STR	47	192	6
SI_	47	192	6	96	48	2
TAP	48	0	2
STR	48	0	3
SCR	48	0	3	96	48	6
TAP	48	96	0
STR	48	192	4
SCL	48	192	4	96	48	1
TAP	48	192	5
TAP	48	288	7
HLD	49	0	0	72
HLD	49	72	2	72
TAP	49	144	3
TAP	49	240	1
TAP	49	240	5
TAP	49	288	2
TAP	49	288	6
STR	50	0	4
SCL	50	0	4	96	48	1
TAP	50	0	5
TAP	50	96	7
TAP	50	192	2
STR	50	192	3
SCR	50	192	3	96	48	6
TAP	50	288	0
TAP	51	0	0
TAP	51	0	5
TAP	51	72	2
TAP	51	72	7
TAP	51	144	1
TAP	51	144	6
TAP	51	240	4
TAP	51	288	2
TAP	51	288	6
STR	52	0	1
SI_	52	0	1	96	48	6
TAP	52	0	4
TAP	52	192	0
STR	52	192	5
SI_	52	192	5	96	48	2
STR	53	0	1
SI_	53	0	1	96	48	6
TAP	53	0	4
TAP	53	192	0
STR	53	192	5
SI_	53	192	5	96	48	2
HLD	54	0	1	384
TAP	54	0	4
TAP	54	48	4
TAP	54	96	4
TAP	54	144	4
TAP	54	192	5
TAP	54	240	5
TAP	54	288	6
TAP	54	336	6
STR	55	0	7
SI_	55	0	7	96	48	4
STR	55	192	3
SI_	55	192	3	96	48	0
STR	55	192	4
SI_	55	192	4	96	48	7
HLD	56	0	1	672
TAP	56	0	6
TAP	56	96	7
STR	56	144	7
SCR	56	144	7	96	432	6
HLD	58	0	3	72
HLD	58	72	2	72
TAP	58	144	1
TAP	58	240	1
TAP	58	240	3
TAP	58	288	2
TAP	58	288	4
HLD	59	0	4	72
HLD	59	72	5	72
TAP	59	144	6
TAP	59	240	4
TAP	59	240	6
TAP	59	288	3
TAP	59	288	5
HLD	60	0	0	288
STR	60	0	2
SCR	60	0	2	96	192	5
STR	61	0	5
SCL	61	0	5	96	192	2
HLD	61	0	7	288
STR	62	0	1
SCL	62	0	1	96	192	6
HLD	62	0	3	288
HLD	63	0	4	288
STR	63	0	6
SCR	63	0	6	96	192	1
TAP	64	0	3
HLD	64	0	4	96
HLD	64	96	3	192
TAP	64	192	4
HLD	64	288	5	192
TAP	65	0	3
HLD	65	96	2	192
TAP	65	192	4
HLD	65	288	6	192
TAP	66	0	3
HLD	66	96	1	96
TAP	66	192	6
TAP	66	264	4
TAP	66	264	6
TAP	66	336	3
TAP	66	336	4
TAP	67	0	1
TAP	67	0	3
TAP	67	72	1
TAP	67	72	3
TAP	67	144	3
TAP	67	144	4
TAP	67	240	6
TAP	67	240	7
BRK	67	288	0
BST	67	288	5
SCR	67	288	5	96	96	2
HLD	68	192	1	96
STR	68	192	2
SI_	68	192	2	96	48	7
STR	69	0	4
SCL	69	0	4	96	48	1
TAP	69	0	5
TAP	69	96	7
TAP	69	192	2
STR	69	192	3
SCR	69	192	3	96	48	6
TAP	69	288	0
HLD	70	0	7	72
HLD	70	72	5	72
TAP	70	144	4
TAP	70	240	3
TAP	70	240	7
TAP	70	288	1
TAP	70	288	5
TAP	71	0	2
STR	71	0	3
SCR	71	0	3	96	48	6
TAP	71	96	0
STR	71	192	4
SCL	71	192	4	96	48	1
TAP	71	192	5
TAP	71	288	7
TAP	72	0	2
TAP	72	0	7
TAP	72	72	0
TAP	72	72	5
TAP	72	144	1
TAP	72	144	6
TAP	72	240	3
TAP	72	288	1
TAP	72	288	5
TAP	73	0	3
STR	73	0	6
SCR	73	0	6	96	48	1
STR	73	192	2
SCR	73	192	2	96	48	5
TAP	73	192	7
TAP	74	0	3
STR	74	0	6
SCR	74	0	6	96	48	1
STR	74	192	2
SCR	74	192	2	96	48	5
TAP	74	192	7
TAP	75	0	3
HLD	75	0	6	384
TAP	75	48	3
TAP	75	96	3
TAP	75	144	3
TAP	75	192	2
TAP	75	240	2
TAP	75	288	1
TAP	75	336	1
STR	76	0	0
SI_	76	0	0	96	48	3
STR	76	192	3
SI_	76	192	3	96	48	0
STR	76	192	4
SI_	76	192	4	96	48	7
BST	77	0	7
SCL	77	0	7	96	576	0

T_REC_TAP	301
T_REC_BRK	1
T_REC_XTP	0
T_REC_HLD	63
T_REC_XHO	0
T_REC_STR	55
T_REC_BST	4
T_REC_XST	0
T_REC_TTP	0
T_REC_THO	0
T_REC_SLD	59
T_REC_ALL	483
T_NUM_TAP	356
T_NUM_BRK	5
T_NUM_HLD	63
T_NUM_SLD	59
T_NUM_ALL	483
T_JUDGE_TAP	361
T_JUDGE_HLD	188
T_JUDGE_SLD	59
T_JUDGE_ALL	608
TTM_EACHPAIRS	133
TTM_SCR_TAP	178000
TTM_SCR_BRK	13000
TTM_SCR_HLD	63000
TTM_SCR_SLD	88500
TTM_SCR_ALL	342500
TTM_SCR_S	331750
TTM_SCR_SS	342000
TTM_RAT_ACV	10014

