VERSION	0.00.00	1.03.00
FES_MODE	0
BPM_DEF	142.000	142.000	142.000	142.000
MET_DEF	4	4
RESOLUTION	384
CLK_DEF	384
COMPATIBLE_CODE	MA2

BPM	0	0	142.000
MET	0	0	4	4

STR	1	0	1
SUR	1	0	1	96	240	4
STR	2	0	6
SUL	2	0	6	96	240	3
STR	3	0	1
SXR	3	0	1	96	240	4
TAP	4	0	5
TAP	4	96	3
TAP	4	96	4
TAP	4	192	2
TAP	4	192	5
BRK	4	288	1
BRK	4	288	6
TAP	5	0	5
TAP	5	96	4
TAP	5	96	6
TAP	5	192	2
TAP	5	288	1
TAP	5	288	3
TAP	6	0	0
TAP	6	96	1
TAP	6	96	7
TAP	6	192	2
TAP	6	192	6
TAP	7	0	2
TAP	7	96	1
TAP	7	96	3
TAP	7	192	5
TAP	7	288	4
TAP	7	288	6
TAP	8	0	7
TAP	8	96	0
TAP	8	96	6
TAP	8	192	1
TAP	8	192	5
TAP	9	0	1
TAP	9	96	0
TAP	9	96	2
TAP	9	192	6
TAP	9	288	5
TAP	9	288	7
TAP	10	0	4
TAP	10	96	3
TAP	10	96	5
TAP	10	192	2
TAP	10	192	6
TAP	11	0	6
TAP	11	96	5
TAP	11	96	7
TAP	11	192	1
TAP	11	288	0
TAP	11	288	2
STR	12	0	0
SI_	12	0	0	96	144	3
STR	12	0	7
SI_	12	0	7	96	144	4
HLD	13	0	2	192
TAP	13	192	3
TAP	13	288	3
TAP	13	288	4
HLD	14	0	5	192
TAP	14	192	4
TAP	14	288	3
TAP	14	288	4
HLD	15	0	2	192
TAP	15	192	3
TAP	15	288	3
TAP	15	288	4
TAP	16	0	5
TAP	16	96	4
TAP	16	96	5
TAP	16	192	2
TAP	16	288	2
TAP	16	288	3
HLD	17	0	5	192
TAP	17	192	4
TAP	17	288	3
TAP	17	288	4
HLD	18	0	2	192
TAP	18	192	3
TAP	18	288	3
TAP	18	288	4
HLD	19	0	5	192
HLD	19	192	4	192
HLD	20	0	3	192
TAP	20	192	2
TAP	20	288	1
TAP	20	288	4
TAP	21	0	5
TAP	21	96	4
TAP	21	96	5
TAP	21	192	2
TAP	21	288	2
TAP	21	288	3
TAP	22	0	4
TAP	22	0	5
TAP	22	96	2
TAP	22	96	3
TAP	22	192	4
TAP	22	192	6
TAP	23	0	2
STR	23	0	3
SCR	23	0	3	96	144	6
STR	24	0	4
SCL	24	0	4	96	144	1
TAP	24	0	5
TAP	25	0	2
TAP	25	96	2
TAP	25	96	3
TAP	25	192	5
TAP	25	288	4
TAP	25	288	5
TAP	26	0	2
TAP	26	0	3
TAP	26	96	4
TAP	26	96	5
TAP	26	192	1
TAP	26	192	3
TAP	27	0	1
TAP	27	96	0
TAP	27	96	1
TAP	27	192	6
TAP	27	288	6
TAP	27	288	7
TAP	28	0	0
TAP	28	0	7
TAP	28	96	1
TAP	28	96	6
TAP	28	192	2
TAP	28	192	5
TAP	28	288	3
TAP	28	288	4
TAP	29	0	4
STR	29	0	5
SCR	29	0	5	96	144	0
TAP	30	0	0
TAP	30	0	1
TAP	30	96	2
TAP	30	96	7
TAP	30	192	3
TAP	30	192	6
STR	31	0	2
SCL	31	0	2	96	144	7
TAP	31	0	3
TAP	32	0	6
TAP	32	0	7
TAP	32	96	0
TAP	32	96	5
TAP	32	192	1
TAP	32	192	4
TAP	33	0	2
TAP	33	96	3
TAP	33	192	4
TAP	33	288	5
TAP	34	0	4
TAP	34	0	5
TAP	34	96	3
TAP	34	96	4
TAP	34	192	2
TAP	34	192	3
HLD	35	0	4	96
HLD	35	0	5	96
HLD	35	192	2	96
HLD	35	192	3	96
HLD	36	0	4	96
HLD	36	0	6	96
HLD	36	192	1	96
HLD	36	192	3	96
TAP	37	0	5
TAP	37	96	3
TAP	37	96	4
TAP	37	192	2
TAP	37	288	3
TAP	37	288	4
TAP	38	0	2
TAP	38	0	5
TAP	38	96	1
TAP	38	96	6
TAP	38	192	0
TAP	38	192	7
STR	38	288	0
SCR	38	288	0	96	144	3
STR	38	288	7
SCL	38	288	7	96	144	4
BRK	39	288	2
BRK	39	288	5
TAP	40	0	4
TAP	40	0	5
TAP	40	96	2
TAP	40	96	3
TAP	40	192	1
TAP	40	240	1
TAP	40	288	0
TAP	41	0	2
TAP	41	0	3
TAP	41	96	4
TAP	41	96	5
TAP	41	192	6
TAP	41	240	6
TAP	41	288	7
TAP	42	0	4
TAP	42	0	5
TAP	42	96	3
TAP	42	96	6
TAP	42	192	2
TAP	42	192	7
STR	42	288	0
SCL	42	288	0	96	144	5
STR	42	288	1
SCR	42	288	1	96	144	4
TAP	43	288	3
TAP	43	288	6
TAP	44	0	4
TAP	44	0	5
TAP	44	96	2
TAP	44	96	3
TAP	44	192	1
TAP	44	192	4
TAP	44	288	0
TAP	44	288	7
TAP	45	0	2
TAP	45	0	3
TAP	45	96	4
TAP	45	96	5
TAP	45	192	3
TAP	45	192	6
TAP	45	288	0
TAP	45	288	7
TAP	46	0	0
TAP	46	0	1
TAP	46	96	0
TAP	46	96	1
TAP	46	192	6
TAP	46	192	7
STR	46	288	6
SCL	46	288	6	96	144	3
STR	46	288	7
SCR	46	288	7	96	144	2
BRK	47	288	1
BRK	47	288	4
TAP	48	0	2
TAP	48	0	3
TAP	48	96	4
TAP	48	96	5
TAP	48	192	6
TAP	48	240	6
TAP	48	288	7
TAP	49	0	4
TAP	49	0	5
TAP	49	96	2
TAP	49	96	3
TAP	49	192	1
TAP	49	240	1
TAP	49	288	0
TAP	50	0	2
TAP	50	0	3
TAP	50	96	4
TAP	50	96	5
TAP	50	192	6
TAP	50	192	7
TAP	50	288	0
STR	50	288	1
SUR	50	288	1	96	240	3
TAP	52	0	4
TAP	52	0	5
TAP	52	96	6
TAP	52	192	2
TAP	52	192	3
TAP	52	288	1
TAP	53	0	4
TAP	53	0	6
TAP	53	96	7
TAP	53	192	1
TAP	53	192	3
TAP	53	288	0
TAP	54	0	7
TAP	54	48	7
TAP	54	96	0
TAP	54	144	0
TAP	54	192	7
TAP	54	240	7
TAP	54	288	0
TAP	54	336	0
HLD	55	0	7	288
BST	55	288	0
SCR	55	288	0	96	528	6
TAP	58	0	1
TAP	58	96	2
TAP	58	192	3
TAP	58	288	4
TAP	58	288	5
TAP	59	0	6
TAP	59	96	5
TAP	59	192	3
TAP	59	192	4
TAP	59	288	2
TAP	59	288	5
HLD	60	0	1	192
TAP	60	192	0
HLD	61	0	6	192
TAP	61	192	7
TAP	62	0	5
TAP	62	96	4
TAP	62	192	3
STR	62	288	2
SCL	62	288	2	96	192	5
TAP	63	288	3
TAP	63	288	4
TAP	64	0	2
TAP	64	96	1
TAP	64	192	0
TAP	64	288	6
TAP	64	288	7
TAP	65	0	5
TAP	65	96	6
TAP	65	192	7
TAP	65	288	0
TAP	65	288	1
HLD	66	0	6	96
HLD	66	0	7	96
HLD	66	192	0	96
HLD	66	192	1	96
TAP	67	0	0
TAP	67	0	7
TAP	67	96	1
TAP	67	96	6
TAP	67	192	2
TAP	67	192	5
STR	67	288	3
SCL	67	288	3	96	144	0
STR	67	288	4
SCR	67	288	4	96	144	7
BRK	68	288	1
BRK	68	288	6
TAP	69	0	0
TAP	69	0	1
TAP	69	96	6
TAP	69	96	7
TAP	69	192	5
TAP	69	240	5
TAP	69	288	4
TAP	69	288	5
TAP	70	0	6
TAP	70	0	7
TAP	70	96	0
TAP	70	96	1
TAP	70	192	2
TAP	70	240	2
TAP	70	288	2
TAP	70	288	3
TAP	71	0	0
TAP	71	0	1
TAP	71	96	2
TAP	71	96	7
TAP	71	192	3
TAP	71	192	6
STR	71	288	4
SCL	71	288	4	96	144	1
STR	71	288	5
SCR	71	288	5	96	144	0
TAP	72	288	2
TAP	72	288	7
TAP	73	0	0
TAP	73	0	1
TAP	73	96	6
TAP	73	96	7
TAP	73	192	0
TAP	73	192	5
TAP	73	288	3
TAP	73	288	4
TAP	74	0	6
TAP	74	0	7
TAP	74	96	0
TAP	74	96	1
TAP	74	192	2
TAP	74	192	7
TAP	74	288	3
TAP	74	288	4
TAP	75	0	3
TAP	75	48	3
TAP	75	96	4
TAP	75	144	4
TAP	75	192	3
TAP	75	240	3
TAP	75	288	3
TAP	75	288	4
TAP	75	336	3
TAP	75	336	4
HLD	76	0	2	288
TAP	76	0	5
BST	76	288	3
SCR	76	288	3	96	768	1

T_REC_TAP	314
T_REC_BRK	8
T_REC_XTP	0
T_REC_HLD	24
T_REC_XHO	0
T_REC_STR	21
T_REC_BST	2
T_REC_XST	0
T_REC_TTP	0
T_REC_THO	0
T_REC_SLD	23
T_REC_ALL	392
T_NUM_TAP	335
T_NUM_BRK	10
T_NUM_HLD	24
T_NUM_SLD	23
T_NUM_ALL	392
T_JUDGE_TAP	345
T_JUDGE_HLD	76
T_JUDGE_SLD	23
T_JUDGE_ALL	444
TTM_EACHPAIRS	135
TTM_SCR_TAP	167500
TTM_SCR_BRK	26000
TTM_SCR_HLD	24000
TTM_SCR_SLD	34500
TTM_SCR_ALL	252000
TTM_SCR_S	243500
TTM_SCR_SS	251000
TTM_RAT_ACV	10039

