VERSION	0.00.00	1.03.00
FES_MODE	0
BPM_DEF	142.000	142.000	142.000	142.000
MET_DEF	4	4
RESOLUTION	384
CLK_DEF	384
COMPATIBLE_CODE	MA2

BPM	0	0	142.000
MET	0	0	4	4

HLD	1	0	0	384
HLD	3	0	7	384
TAP	5	0	0
TAP	5	192	0
TAP	6	0	1
TAP	6	192	1
TAP	7	0	2
TAP	7	192	2
TAP	8	0	3
TAP	8	192	3
TAP	8	192	4
TAP	9	0	4
TAP	9	192	4
TAP	10	0	5
TAP	10	192	5
TAP	11	0	6
TAP	11	192	6
TAP	12	0	7
TAP	12	192	0
TAP	12	192	7
HLD	13	0	6	576
HLD	14	0	7	192
HLD	15	0	5	576
HLD	16	0	4	192
HLD	17	0	2	576
HLD	18	0	3	192
HLD	19	0	1	576
HLD	20	0	0	192
TAP	21	0	7
TAP	21	192	7
TAP	22	0	0
TAP	22	96	0
TAP	22	192	0
TAP	23	0	1
TAP	23	192	1
TAP	24	0	2
TAP	24	96	2
TAP	24	192	2
TAP	24	192	3
TAP	25	0	3
TAP	25	192	3
TAP	26	0	4
TAP	26	96	4
TAP	26	192	4
TAP	27	0	5
TAP	27	192	5
TAP	28	0	6
TAP	28	96	6
TAP	28	192	6
TAP	28	192	7
STR	29	0	0
SI_	29	0	0	96	288	4
STR	31	0	7
SI_	31	0	7	96	288	3
STR	33	0	0
SI_	33	0	0	96	288	5
STR	35	0	7
SI_	35	0	7	96	288	2
TAP	37	0	0
TAP	37	0	7
TAP	37	192	0
TAP	37	192	7
HLD	38	0	0	384
HLD	38	0	7	384
BRK	40	0	0
TAP	40	96	0
TAP	40	192	0
TAP	41	0	1
TAP	41	96	1
TAP	41	192	1
TAP	42	0	2
TAP	42	96	2
TAP	42	192	2
TAP	43	0	3
TAP	43	96	4
TAP	43	192	3
TAP	43	192	4
TAP	44	0	4
TAP	44	96	4
TAP	44	192	4
TAP	45	0	5
TAP	45	96	5
TAP	45	192	5
TAP	46	0	6
TAP	46	96	6
TAP	46	192	6
TAP	47	0	7
TAP	47	96	0
TAP	47	192	0
TAP	47	192	7
BRK	48	0	7
TAP	48	96	7
TAP	48	192	7
TAP	49	0	6
TAP	49	96	6
TAP	49	192	6
TAP	50	0	5
TAP	50	96	5
TAP	50	192	5
TAP	51	0	4
TAP	51	96	3
TAP	51	192	3
TAP	51	192	4
TAP	52	0	3
TAP	52	96	3
TAP	52	192	3
TAP	53	0	2
TAP	53	96	2
TAP	53	192	2
TAP	54	0	1
TAP	54	96	1
TAP	54	192	1
TAP	55	0	0
TAP	55	96	7
TAP	55	192	0
TAP	55	192	7
TAP	56	0	6
TAP	56	96	6
TAP	56	192	6
TAP	57	0	7
TAP	57	96	7
TAP	57	192	7
TAP	58	0	0
TAP	58	96	0
TAP	58	192	0
TAP	59	0	1
TAP	59	96	1
TAP	59	192	1
STR	60	0	1
SI_	60	0	1	96	288	5
STR	62	0	6
SI_	62	0	6	96	288	2
STR	64	0	1
SI_	64	0	1	96	288	4
STR	66	0	6
SI_	66	0	6	96	288	3
BRK	69	0	0
TAP	69	96	0
TAP	69	192	1
TAP	69	288	1
TAP	70	0	2
TAP	70	96	2
TAP	70	192	2
TAP	70	192	3
TAP	71	0	4
TAP	71	96	4
TAP	71	192	5
TAP	71	288	5
TAP	72	0	6
TAP	72	96	6
TAP	72	192	6
TAP	72	192	7
TAP	73	0	7
TAP	73	96	7
TAP	73	192	6
TAP	73	288	6
TAP	74	0	5
TAP	74	96	5
TAP	74	192	4
TAP	74	192	5
TAP	75	0	3
TAP	75	96	3
TAP	75	192	2
TAP	75	288	2
TAP	76	0	1
TAP	76	96	1
TAP	76	192	0
TAP	76	192	1
STR	77	0	0
SI_	77	0	0	96	288	3
STR	77	0	7
SI_	77	0	7	96	288	4

T_REC_TAP	137
T_REC_BRK	3
T_REC_XTP	0
T_REC_HLD	12
T_REC_XHO	0
T_REC_STR	10
T_REC_BST	0
T_REC_XST	0
T_REC_TTP	0
T_REC_THO	0
T_REC_SLD	10
T_REC_ALL	172
T_NUM_TAP	147
T_NUM_BRK	3
T_NUM_HLD	12
T_NUM_SLD	10
T_NUM_ALL	172
T_JUDGE_TAP	150
T_JUDGE_HLD	96
T_JUDGE_SLD	10
T_JUDGE_ALL	256
TTM_EACHPAIRS	16
TTM_SCR_TAP	73500
TTM_SCR_BRK	7800
TTM_SCR_HLD	12000
TTM_SCR_SLD	15000
TTM_SCR_ALL	108300
TTM_SCR_S	104800
TTM_SCR_SS	108000
TTM_RAT_ACV	10027

